VERSION	0.00.00	1.03.00
FES_MODE	0
BPM_DEF	180.000	180.000	180.000	180.000
MET_DEF	4	4
RESOLUTION	384
CLK_DEF	384
COMPATIBLE_CODE	MA2

BPM	0	0	180.000
MET	0	0	4	4

TAP	5	0	3
TAP	5	192	3
TAP	6	0	3
TAP	6	96	3
TAP	7	0	4
TAP	7	192	4
TAP	8	0	4
TAP	8	96	4
TAP	9	0	3
TAP	9	192	3
TAP	10	0	3
TAP	10	96	3
TAP	11	0	4
TAP	11	192	4
TAP	12	0	4
TAP	12	96	4
TAP	13	0	3
TAP	13	192	3
TAP	15	0	2
TAP	15	0	3
TAP	15	192	2
TAP	15	192	3
TAP	17	0	4
TAP	17	192	4
TAP	19	0	4
TAP	19	0	5
TAP	19	192	4
TAP	19	192	5
TAP	21	0	7
TAP	21	96	7
TAP	21	192	7
TAP	21	288	7
TAP	23	0	0
TAP	23	96	0
TAP	23	192	0
TAP	23	288	0
TAP	25	0	6
TAP	25	96	6
TAP	25	192	6
TAP	25	288	6
TAP	27	0	1
TAP	27	96	1
TAP	27	192	1
TAP	27	288	1
STR	29	0	0
SI_	29	0	0	96	288	4
STR	31	0	7
SI_	31	0	7	96	288	3
TAP	33	0	0
TAP	33	96	0
TAP	33	192	0
TAP	34	0	1
TAP	34	96	1
TAP	34	192	1
TAP	35	0	2
TAP	35	96	2
TAP	35	192	2
TAP	36	0	3
TAP	36	96	3
TAP	36	192	3
TAP	37	0	4
TAP	37	96	4
TAP	37	192	4
TAP	38	0	5
TAP	38	96	5
TAP	38	192	5
TAP	39	0	6
TAP	39	96	6
TAP	39	192	6
TAP	40	0	7
TAP	40	96	7
TAP	40	192	7
TAP	41	0	0
TAP	41	96	0
TAP	41	192	0
TAP	42	0	7
TAP	42	96	7
TAP	42	192	7
TAP	43	0	6
TAP	43	96	6
TAP	43	192	6
TAP	44	0	5
TAP	44	96	5
TAP	44	192	5
TAP	45	0	4
TAP	45	96	4
TAP	45	192	4
TAP	46	0	3
TAP	46	96	3
TAP	46	192	3
TAP	47	0	2
TAP	47	96	2
TAP	47	192	2
TAP	48	0	1
TAP	48	96	1
TAP	48	192	1
BRK	49	0	0
BRK	49	0	7
TAP	50	0	0
TAP	50	192	0
TAP	50	192	1
TAP	52	0	2
TAP	52	192	2
TAP	52	192	3
TAP	54	0	4
TAP	54	192	4
TAP	54	192	5
TAP	56	0	6
TAP	56	192	6
TAP	56	192	7
TAP	58	0	7
TAP	58	96	7
TAP	58	192	6
TAP	58	288	6
TAP	60	0	5
TAP	60	96	5
TAP	60	192	4
TAP	60	288	4
TAP	62	0	3
TAP	62	96	3
TAP	62	192	2
TAP	62	288	2
TAP	64	0	1
TAP	64	96	1
TAP	64	192	0
TAP	64	288	0
STR	66	0	0
SCR	66	0	0	96	288	3
STR	68	0	7
SCL	68	0	7	96	288	4
TAP	70	0	0
TAP	70	96	0
TAP	70	192	0
TAP	70	288	0
TAP	71	0	1
TAP	71	96	1
TAP	71	192	1
TAP	72	0	2
TAP	72	96	2
TAP	72	192	2
TAP	72	288	2
TAP	73	0	3
TAP	73	96	3
TAP	73	192	3
TAP	73	192	4
TAP	74	0	4
TAP	74	96	4
TAP	74	192	4
TAP	74	288	4
TAP	75	0	5
TAP	75	96	5
TAP	75	192	5
TAP	76	0	6
TAP	76	96	6
TAP	76	192	6
TAP	76	288	6
TAP	77	0	7
TAP	77	96	7
TAP	77	192	0
TAP	77	192	7
TAP	78	0	0
TAP	78	96	0
TAP	78	192	0
TAP	78	288	0
TAP	79	0	7
TAP	79	96	7
TAP	79	192	7
TAP	80	0	6
TAP	80	96	6
TAP	80	192	6
TAP	80	288	6
TAP	81	0	5
TAP	81	96	5
TAP	81	192	4
TAP	81	192	5
TAP	82	0	4
TAP	82	96	4
TAP	82	192	4
TAP	82	288	4
TAP	83	0	3
TAP	83	96	3
TAP	83	192	3
TAP	84	0	2
TAP	84	96	2
TAP	84	192	2
TAP	84	288	2
TAP	85	0	1
TAP	85	96	1
TAP	85	192	0
TAP	85	192	1
TAP	86	0	0
TAP	86	96	0
TAP	86	192	1
TAP	86	288	1
TAP	87	0	2
TAP	87	96	2
TAP	87	192	2
TAP	87	192	3
TAP	88	0	3
TAP	88	96	3
TAP	88	192	4
TAP	88	288	4
TAP	89	0	5
TAP	89	96	5
TAP	89	192	4
TAP	89	192	5
TAP	90	0	6
TAP	90	96	6
TAP	90	192	7
TAP	90	288	7
TAP	91	0	0
TAP	91	96	0
TAP	91	192	0
TAP	91	192	1
TAP	92	0	1
TAP	92	96	1
TAP	92	192	2
TAP	92	288	2
TAP	93	0	3
TAP	93	96	3
TAP	93	192	3
TAP	93	192	4
TAP	94	0	5
TAP	94	96	5
TAP	94	192	4
TAP	94	288	4
TAP	95	0	3
TAP	95	96	3
TAP	95	192	2
TAP	95	192	4
TAP	96	0	2
TAP	96	96	2
TAP	96	192	3
TAP	96	288	3
TAP	97	0	4
TAP	97	96	4
TAP	97	192	3
TAP	97	192	5
TAP	98	0	5
TAP	98	96	5
TAP	98	192	3
TAP	98	288	3
TAP	99	0	1
TAP	99	96	1
TAP	99	192	0
TAP	99	192	7
HLD	100	0	0	192
HLD	100	0	7	192
TAP	101	0	0
TAP	101	0	7
TAP	101	96	0
TAP	101	96	7
BRK	101	192	1
BRK	101	192	6

T_REC_TAP	240
T_REC_BRK	4
T_REC_XTP	0
T_REC_HLD	2
T_REC_XHO	0
T_REC_STR	4
T_REC_BST	0
T_REC_XST	0
T_REC_TTP	0
T_REC_THO	0
T_REC_SLD	4
T_REC_ALL	254
T_NUM_TAP	244
T_NUM_BRK	4
T_NUM_HLD	2
T_NUM_SLD	4
T_NUM_ALL	254
T_JUDGE_TAP	248
T_JUDGE_HLD	8
T_JUDGE_SLD	4
T_JUDGE_ALL	260
TTM_EACHPAIRS	24
TTM_SCR_TAP	122000
TTM_SCR_BRK	10400
TTM_SCR_HLD	2000
TTM_SCR_SLD	6000
TTM_SCR_ALL	140400
TTM_SCR_S	135800
TTM_SCR_SS	140000
TTM_RAT_ACV	10028

