VERSION	0.00.00	1.03.00
FES_MODE	0
BPM_DEF	190.000	190.000	190.000	190.000
MET_DEF	4	4
RESOLUTION	384
CLK_DEF	288
COMPATIBLE_CODE	MA2

BPM	0	0	190.000
MET	0	0	4	3

TAP	2	0	4
TAP	2	96	2
TAP	2	112	3
TAP	2	128	2
TAP	2	240	1
TAP	2	288	2
TAP	3	0	5
TAP	3	16	4
TAP	3	32	5
TAP	3	48	4
TAP	3	192	2
TAP	3	240	3
TAP	3	288	4
TAP	4	48	5
TAP	4	64	4
TAP	4	80	5
TAP	4	192	2
TAP	5	0	1
TAP	5	48	2
HLD	5	96	3	288
TAP	5	288	2
TAP	6	0	2
TAP	6	144	5
TAP	6	192	6
TAP	6	288	5
TAP	6	304	4
TAP	6	320	5
TAP	7	144	3
TAP	7	144	4
TAP	7	192	3
TAP	7	192	4
TAP	7	288	3
TAP	7	288	4
TAP	8	0	3
TAP	8	96	5
TAP	8	112	4
TAP	8	128	5
TAP	8	240	6
TAP	8	288	5
TAP	9	0	2
TAP	9	16	3
TAP	9	32	2
TAP	9	48	3
TAP	9	192	5
TAP	9	240	4
TAP	9	288	3
TAP	10	48	2
TAP	10	64	3
TAP	10	80	2
TAP	10	192	5
TAP	11	0	3
TAP	11	0	7
TAP	11	48	3
TAP	11	48	7
TAP	11	96	2
TAP	11	96	6
TAP	11	144	2
TAP	11	144	6
TAP	11	192	1
TAP	11	192	5
TAP	11	240	1
TAP	11	240	5
TAP	11	288	0
TAP	11	288	4
TAP	11	336	0
TAP	11	336	4
TAP	12	0	3
TAP	12	0	7
TAP	12	48	3
TAP	12	48	7
TAP	12	96	0
TAP	12	96	4
TAP	12	144	0
TAP	12	144	4
TAP	12	192	1
TAP	12	192	5
TAP	12	240	1
TAP	12	240	5
TAP	12	288	3
TAP	12	312	4
TAP	12	336	3
TAP	12	360	4
TAP	13	0	2
TAP	13	24	5
TAP	13	48	2
TAP	13	72	5
TAP	13	96	0
TAP	13	120	7
TAP	13	144	0
TAP	13	168	7
STR	13	192	1
SI_	13	192	1	96	48	5
TAP	13	192	6
TAP	13	288	1
STR	13	288	6
SI_	13	288	6	96	48	2
TAP	14	0	6
STR	14	96	1
SI_	14	96	1	96	48	4
TAP	14	192	1
STR	14	192	7
SI_	14	192	7	96	48	3
STR	14	288	0
SI_	14	288	0	96	48	4
TAP	14	288	7
TAP	15	0	0
STR	15	0	6
SUL	15	0	6	96	144	3
TAP	15	96	3
TAP	15	96	6
STR	15	288	6
SI_	15	288	6	96	48	3
STR	16	0	0
SI_	16	0	0	96	48	4
TAP	16	0	6
TAP	16	96	0
STR	16	96	7
SI_	16	96	7	96	48	3
STR	16	192	1
SUR	16	192	1	96	144	4
TAP	16	192	7
TAP	16	288	1
TAP	16	288	4
STR	17	96	1
SI_	17	96	1	96	48	4
TAP	17	144	1
TAP	17	192	1
STR	17	192	7
SI_	17	192	7	96	48	3
TAP	17	240	7
STR	17	288	0
SI_	17	288	0	96	48	4
TAP	17	288	7
TAP	18	0	0
STR	18	0	6
SUL	18	0	6	96	144	3
TAP	18	96	3
TAP	18	96	6
STR	18	288	6
SI_	18	288	6	96	48	3
TAP	18	336	6
STR	19	0	0
SI_	19	0	0	96	48	4
TAP	19	0	6
TAP	19	48	0
TAP	19	96	0
STR	19	96	7
SI_	19	96	7	96	48	3
STR	19	192	1
SUR	19	192	1	96	144	4
TAP	19	192	7
TAP	19	288	1
TAP	19	288	4
STR	20	96	1
SI_	20	96	1	96	48	4
TAP	20	144	1
TAP	20	192	1
STR	20	192	7
SI_	20	192	7	96	48	3
TAP	20	240	7
STR	20	288	0
SI_	20	288	0	96	48	4
TAP	20	288	7
TAP	21	0	0
STR	21	0	6
SI_	21	0	6	96	48	3
STR	21	96	2
SI_	21	96	2	96	48	0
TAP	21	96	6
TAP	21	192	2
STR	21	192	7
SI_	21	192	7	96	48	3
STR	21	288	0
SI_	21	288	0	96	48	4
TAP	21	288	7
TAP	22	0	0
STR	22	0	5
SI_	22	0	5	96	48	7
STR	22	96	1
SI_	22	96	1	96	48	3
TAP	22	96	5
TAP	22	192	1
STR	22	192	5
SUL	22	192	5	96	144	3
TAP	22	288	3
TAP	22	288	5
STR	23	96	6
SI_	23	96	6	96	48	3
TAP	23	144	6
STR	23	192	0
SI_	23	192	0	96	48	4
TAP	23	192	6
TAP	23	240	0
TAP	23	288	0
STR	23	288	7
SI_	23	288	7	96	48	3
STR	24	0	1
SI_	24	0	1	96	48	4
TAP	24	0	7
TAP	24	96	1
STR	24	96	5
SI_	24	96	5	96	48	7
STR	24	192	0
SI_	24	192	0	96	48	4
TAP	24	192	5
TAP	24	288	0
STR	24	288	7
SI_	24	288	7	96	48	3
STR	25	0	2
SI_	25	0	2	96	48	0
TAP	25	0	7
TAP	25	96	2
TAP	25	96	6
TAP	25	192	0
TAP	25	216	7
TAP	25	240	1
TAP	25	264	6
TAP	25	288	2
TAP	25	312	5
TAP	25	336	3
TAP	25	360	4
TAP	26	0	1
TAP	26	0	6
STR	26	96	1
SUR	26	96	1	96	384	4
TAP	27	0	7
STR	27	288	6
SUL	27	288	6	96	384	3
TAP	28	192	0
STR	29	96	1
SUR	29	96	1	96	384	4
TAP	30	0	7
STR	30	288	6
SUL	30	288	6	96	384	3
TAP	31	192	0
HLD	32	96	2	480
TAP	33	0	3
HLD	33	192	3	96
TAP	33	288	4
HLD	33	336	5	240
HLD	34	192	4	288
HLD	35	96	3	288
HLD	36	0	4	192
HLD	36	192	6	96
TAP	36	288	5
TAP	36	336	4
STR	37	0	3
SUR	37	0	3	96	192	4
STR	38	0	0
SCR	38	0	0	96	48	2
STR	38	96	0
SI_	38	96	0	96	48	3
TAP	38	96	6
STR	38	192	0
SI_	38	192	0	96	48	4
TAP	38	192	6
STR	38	288	0
SCR	38	288	0	96	48	2
TAP	38	288	6
STR	39	0	0
SI_	39	0	0	96	48	3
TAP	39	0	5
STR	39	96	0
SI_	39	96	0	96	48	4
TAP	39	96	5
STR	39	192	0
SCR	39	192	0	96	48	2
TAP	39	192	6
TAP	39	240	6
STR	39	288	0
SI_	39	288	0	96	48	3
STR	39	288	7
SI_	39	288	7	96	48	5
STR	40	0	0
SI_	40	0	0	96	48	4
TAP	40	0	7
STR	40	96	0
SCR	40	96	0	96	48	2
TAP	40	96	7
STR	40	192	0
SI_	40	192	0	96	48	3
HLD	40	192	6	96
STR	40	288	0
SI_	40	288	0	96	48	4
TAP	40	336	7
STR	41	0	0
SCR	41	0	0	96	48	2
TAP	41	0	6
TAP	41	48	5
STR	41	96	0
SI_	41	96	0	96	48	3
STR	41	96	5
SI_	41	96	5	96	48	7
STR	41	192	0
SI_	41	192	0	96	48	4
TAP	41	192	5
STR	41	288	0
SCR	41	288	0	96	48	2
TAP	41	288	7
STR	42	0	0
SI_	42	0	0	96	48	3
TAP	42	0	7
STR	42	96	0
SI_	42	96	0	96	48	4
TAP	42	96	6
STR	42	192	0
SCR	42	192	0	96	48	2
TAP	42	192	5
STR	42	288	0
SI_	42	288	0	96	48	3
TAP	42	288	5
STR	43	0	0
SI_	43	0	0	96	48	4
TAP	43	0	7
TAP	43	48	7
STR	43	96	0
SCR	43	96	0	96	48	2
TAP	43	96	6
STR	43	192	0
SI_	43	192	0	96	48	3
TAP	43	192	7
STR	43	288	0
SI_	43	288	0	96	48	4
TAP	43	288	7
TAP	43	312	6
TAP	43	336	5
TAP	44	0	0
STR	44	0	7
SCL	44	0	7	96	48	5
TAP	44	96	1
STR	44	96	7
SI_	44	96	7	96	48	4
TAP	44	192	1
STR	44	192	7
SI_	44	192	7	96	48	3
TAP	44	288	1
STR	44	288	7
SCL	44	288	7	96	48	5
TAP	45	0	2
STR	45	0	7
SI_	45	0	7	96	48	4
TAP	45	96	2
STR	45	96	7
SI_	45	96	7	96	48	3
TAP	45	192	1
STR	45	192	7
SCL	45	192	7	96	48	5
TAP	45	240	1
STR	45	288	0
SI_	45	288	0	96	48	2
STR	45	288	7
SI_	45	288	7	96	48	4
TAP	46	0	0
STR	46	0	7
SI_	46	0	7	96	48	3
TAP	46	96	0
STR	46	96	7
SCL	46	96	7	96	48	5
HLD	46	192	1	96
STR	46	192	7
SI_	46	192	7	96	48	4
STR	46	288	7
SI_	46	288	7	96	48	3
TAP	46	336	0
TAP	47	0	1
STR	47	0	7
SCL	47	0	7	96	48	5
TAP	47	48	2
STR	47	96	2
SI_	47	96	2	96	48	0
STR	47	96	7
SI_	47	96	7	96	48	4
TAP	47	192	2
STR	47	192	7
SI_	47	192	7	96	48	3
TAP	47	288	0
STR	47	288	7
SCL	47	288	7	96	48	5
TAP	48	0	0
STR	48	0	7
SI_	48	0	7	96	48	4
TAP	48	96	0
STR	48	96	7
SI_	48	96	7	96	48	3
TAP	48	144	0
TAP	48	168	1
TAP	48	192	2
STR	48	192	7
SCL	48	192	7	96	48	5
TAP	48	240	2
TAP	48	288	0
STR	48	288	7
SI_	48	288	7	96	48	4
TAP	48	336	1
TAP	49	0	2
STR	49	0	7
SI_	49	0	7	96	48	3
TAP	49	96	2
STR	49	96	7
SCL	49	96	7	96	48	5
TAP	49	192	2
STR	49	192	7
SI_	49	192	7	96	48	4
TAP	49	288	0
TAP	49	288	7
TAP	50	0	1
TAP	50	0	6
STR	50	96	1
SCR	50	96	1	96	48	4
STR	50	144	4
SI_	50	144	4	96	48	1
STR	50	192	1
SI_	50	192	1	96	48	6
STR	50	240	6
SCR	50	240	6	96	48	1
STR	50	288	5
SI_	50	288	5	96	48	1
TAP	50	336	5
STR	51	0	5
SCR	51	0	5	96	96	4
STR	51	288	6
SCL	51	288	6	96	48	3
STR	51	336	3
SI_	51	336	3	96	48	6
STR	52	0	6
SI_	52	0	6	96	48	1
STR	52	48	1
SCL	52	48	1	96	48	6
STR	52	96	2
SI_	52	96	2	96	48	6
TAP	52	144	2
STR	52	192	2
SCL	52	192	2	96	96	3
TAP	53	96	0
TAP	53	120	1
TAP	53	144	2
TAP	53	168	3
TAP	53	192	7
TAP	53	216	6
TAP	53	240	5
TAP	53	264	4
TAP	53	288	1
TAP	53	312	2
TAP	53	336	3
TAP	53	360	4
TAP	54	0	6
TAP	54	24	5
TAP	54	48	4
TAP	54	72	3
TAP	54	96	7
TAP	54	120	0
TAP	54	144	1
TAP	54	168	2
TAP	54	192	0
TAP	54	216	7
TAP	54	240	6
TAP	54	264	5
TAP	54	288	1
TAP	54	312	2
TAP	54	336	3
TAP	54	360	4
TAP	55	0	6
TAP	55	24	5
TAP	55	48	4
TAP	55	72	3
TAP	55	96	0
TAP	55	120	1
TAP	55	144	2
TAP	55	168	3
TAP	55	192	7
TAP	55	216	6
TAP	55	240	5
TAP	55	264	4
TAP	55	288	0
TAP	55	312	1
TAP	55	336	2
TAP	55	360	3
TAP	56	0	0
TAP	56	0	4
STR	56	96	2
SCR	56	96	2	96	48	5
STR	56	144	5
SI_	56	144	5	96	48	2
STR	56	192	2
SI_	56	192	2	96	48	7
STR	56	240	7
SCR	56	240	7	96	48	2
STR	56	288	6
SI_	56	288	6	96	48	3
TAP	56	336	6
STR	57	0	6
SUR	57	0	6	96	144	0
STR	57	288	5
SCL	57	288	5	96	48	2
STR	57	336	2
SI_	57	336	2	96	48	5
STR	58	0	5
SI_	58	0	5	96	48	0
STR	58	48	0
SCL	58	48	0	96	48	5
STR	58	96	1
SI_	58	96	1	96	48	4
TAP	58	144	1
STR	58	192	1
SUL	58	192	1	96	144	7
STR	59	96	1
SCR	59	96	1	96	48	4
TAP	59	96	4
TAP	59	192	1
TAP	59	240	0
TAP	59	288	7
TAP	60	0	3
STR	60	0	6
SCL	60	0	6	96	48	3
TAP	60	96	6
TAP	60	144	7
TAP	60	192	0
TAP	60	288	1
TAP	60	336	1
TAP	61	0	7
TAP	61	48	7
TAP	61	96	0
TAP	61	144	0
TAP	61	192	6
TAP	61	216	1
TAP	61	240	7
TAP	61	264	0
TAP	61	288	5
TAP	61	312	2
TAP	61	336	4
TAP	61	360	3
TAP	62	0	0
STR	62	96	0
SI_	62	96	0	96	48	4
TAP	62	144	7
TAP	62	192	6
STR	62	240	5
SI_	62	240	5	96	48	1
TAP	62	288	6
TAP	62	336	7
STR	63	0	0
SCL	63	0	0	96	96	4
STR	63	96	4
SCL	63	96	4	96	96	0
STR	63	288	7
SI_	63	288	7	96	48	3
TAP	63	336	0
TAP	64	0	1
STR	64	48	2
SI_	64	48	2	96	48	6
TAP	64	96	1
TAP	64	144	0
STR	64	192	7
SCR	64	192	7	96	96	3
STR	65	0	0
SCL	65	0	0	96	60	5
STR	65	48	6
SCL	65	48	6	96	60	3
STR	65	96	4
SCL	65	96	4	96	60	1
STR	65	192	1
SCL	65	192	1	96	96	6
STR	65	288	6
SCL	65	288	6	96	96	3
TAP	66	0	3
TAP	66	144	1
STR	66	192	1
SCR	66	192	1	96	96	4
STR	66	288	4
SCR	66	288	4	96	96	7
STR	67	0	7
SI_	67	0	7	96	96	3
STR	67	96	3
SCL	67	96	3	96	96	0
STR	67	192	0
SSL	67	192	0	96	144	4
STR	68	96	7
SI_	68	96	7	96	48	3
TAP	68	144	0
TAP	68	192	1
STR	68	240	2
SI_	68	240	2	96	48	6
TAP	68	288	1
TAP	68	336	0
STR	69	0	7
SCR	69	0	7	96	96	3
STR	69	96	3
SCR	69	96	3	96	96	7
STR	69	288	0
SI_	69	288	0	96	48	4
TAP	69	336	7
TAP	70	0	6
STR	70	48	5
SI_	70	48	5	96	48	1
TAP	70	96	6
TAP	70	144	7
STR	70	192	0
SCL	70	192	0	96	96	4
STR	71	0	7
SCR	71	0	7	96	60	2
STR	71	48	1
SCR	71	48	1	96	60	4
STR	71	96	3
SCR	71	96	3	96	60	6
TAP	71	240	0
STR	71	288	0
SCL	71	288	0	96	60	5
STR	71	336	6
SCL	71	336	6	96	60	3
STR	72	0	4
SCL	72	0	4	96	60	1
STR	72	144	7
SCR	72	144	7	96	60	2
STR	72	192	1
SCR	72	192	1	96	60	4
STR	72	240	3
SCR	72	240	3	96	60	6
STR	72	288	5
SCR	72	288	5	96	60	0
TAP	73	96	3
TAP	73	96	4
TAP	73	192	0
TAP	73	216	7
TAP	73	240	0
TAP	73	264	7
TAP	73	288	2
TAP	73	312	5
TAP	73	336	2
TAP	73	360	5
TAP	74	0	1
TAP	74	24	6
TAP	74	48	0
TAP	74	72	7
STR	74	96	1
SUR	74	96	1	96	384	4
TAP	74	96	6
STR	75	288	6
SUL	75	288	6	96	384	3
TAP	77	0	2
TAP	77	48	2
TAP	77	96	2
TAP	77	96	3
TAP	77	240	5
TAP	77	288	4
TAP	78	0	4
TAP	78	0	5
TAP	78	144	2
TAP	78	192	3
TAP	78	288	2
TAP	78	288	3
TAP	79	0	4
TAP	79	0	5
TAP	79	96	2
TAP	79	96	5
TAP	79	192	3
TAP	79	192	4
TAP	79	288	0
TAP	79	288	7
TAP	80	0	1
TAP	80	0	6
STR	80	96	1
SCR	80	96	1	96	48	4
STR	80	96	5
SCR	80	96	5	96	48	0
STR	80	192	5
SI_	80	192	5	96	48	1
STR	81	0	7
SI_	81	0	7	96	48	3
STR	81	96	4
SI_	81	96	4	96	48	0
TAP	81	96	7
TAP	81	192	4
TAP	81	192	7
STR	81	288	2
SCL	81	288	2	96	48	7
STR	81	288	6
SCL	81	288	6	96	48	3
STR	82	0	2
SI_	82	0	2	96	48	6
STR	82	192	0
SI_	82	192	0	96	48	4
TAP	82	288	0
STR	82	288	3
SI_	82	288	3	96	48	7
TAP	83	0	0
TAP	83	0	3
TAP	83	48	0
TAP	83	96	3
TAP	83	96	7
TAP	83	192	1
TAP	83	192	3
TAP	83	288	3
TAP	83	288	5
TAP	84	0	0
TAP	84	0	4
TAP	84	96	4
TAP	84	96	6
TAP	84	192	2
TAP	84	192	4
TAP	84	288	3
STR	84	288	7
SI_	84	288	7	96	48	3
STR	85	0	1
SI_	85	0	1	96	48	4
TAP	85	0	7
TAP	85	96	1
STR	85	96	6
SI_	85	96	6	96	48	3
STR	85	192	0
SI_	85	192	0	96	48	4
TAP	85	192	6
TAP	85	288	0
STR	85	288	6
SI_	85	288	6	96	48	3
STR	86	0	1
SI_	86	0	1	96	48	4
TAP	86	0	6
TAP	86	96	1
STR	86	96	7
SI_	86	96	7	96	48	3
TAP	86	144	7
STR	86	192	1
SI_	86	192	1	96	48	4
TAP	86	240	1
STR	86	288	6
SI_	86	288	6	96	48	3
TAP	86	336	6
STR	87	0	0
SI_	87	0	0	96	48	4
TAP	87	48	0
STR	87	96	6
SI_	87	96	6	96	48	3
TAP	87	144	6
STR	87	192	1
SI_	87	192	1	96	48	4
TAP	87	240	1
STR	87	288	7
SI_	87	288	7	96	48	3
TAP	87	336	7
STR	88	0	1
SI_	88	0	1	96	48	4
TAP	88	0	7
TAP	88	48	1
TAP	88	96	1
STR	88	96	6
SI_	88	96	6	96	48	3
TAP	88	144	6
STR	88	192	0
SI_	88	192	0	96	48	4
TAP	88	192	6
TAP	88	240	0
TAP	88	288	0
STR	88	288	6
SI_	88	288	6	96	48	3
TAP	88	336	6
TAP	89	0	1
TAP	89	0	6
TAP	89	48	1
TAP	89	96	7
TAP	89	108	6
TAP	89	120	5
TAP	89	132	4
TAP	89	144	3
TAP	89	156	2
TAP	89	168	1
TAP	89	180	0
TAP	89	192	7
TAP	89	204	6
TAP	89	216	5
TAP	89	228	4
TAP	89	240	3
TAP	89	252	2
TAP	89	264	1
TAP	89	276	0
TAP	89	288	7
TAP	89	300	6
TAP	89	312	5
TAP	89	324	4
TAP	89	336	3
TAP	89	348	2
TAP	89	360	1
TAP	89	372	0
BRK	90	0	3
BRK	90	0	7
TAP	90	192	1
TAP	90	192	6
STR	90	288	0
SCL	90	288	0	96	48	4
TAP	90	288	4
TAP	91	0	0
TAP	91	0	1
TAP	91	48	2
TAP	91	96	1
TAP	91	96	3
TAP	91	192	3
STR	91	192	7
SCR	91	192	7	96	48	3
TAP	91	288	6
TAP	91	288	7
TAP	91	336	5
TAP	92	0	4
TAP	92	0	6
TAP	92	48	5
STR	92	96	0
SCL	92	96	0	96	48	4
TAP	92	96	4
TAP	92	192	0
TAP	92	192	1
TAP	92	240	1
TAP	92	264	2
TAP	92	288	3
TAP	92	336	3
TAP	93	0	3
STR	93	0	7
SCR	93	0	7	96	48	3
TAP	93	96	6
TAP	93	96	7
TAP	93	144	5
TAP	93	192	4
TAP	93	192	6
STR	93	288	3
SCR	93	288	3	96	48	7
TAP	93	288	7
TAP	94	0	1
TAP	94	0	3
TAP	94	48	2
TAP	94	96	0
TAP	94	96	2
TAP	94	192	0
STR	94	192	4
SCL	94	192	4	96	48	0
TAP	94	288	4
TAP	94	288	6
TAP	94	336	5
TAP	95	0	5
TAP	95	0	7
STR	95	96	3
SCR	95	96	3	96	48	7
TAP	95	96	7
TAP	95	192	1
TAP	95	192	3
TAP	95	240	2
TAP	95	288	0
TAP	95	288	2
TAP	96	0	3
TAP	96	0	4
TAP	96	96	0
TAP	96	96	7
TAP	96	192	1
TAP	96	192	6
STR	96	288	1
SCR	96	288	1	96	48	4
STR	96	288	5
SCR	96	288	5	96	48	0
TAP	96	336	1
TAP	96	336	5
TAP	97	0	1
STR	97	0	5
SUR	97	0	5	96	48	3
STR	97	192	2
SCL	97	192	2	96	48	7
STR	97	192	6
SCL	97	192	6	96	48	3
TAP	97	240	2
TAP	97	240	6
TAP	97	288	2
STR	97	288	6
SUL	97	288	6	96	48	0
TAP	98	96	7
TAP	98	120	6
TAP	98	144	5
TAP	98	192	0
TAP	98	192	4
STR	98	288	3
SCR	98	288	3	96	48	6
STR	98	288	7
SCR	98	288	7	96	48	2
STR	99	0	3
SV_	99	0	3	96	48	1
STR	99	0	7
SV_	99	0	7	96	48	5
TAP	99	192	1
TAP	99	192	5
TAP	99	240	2
TAP	99	240	6
STR	99	288	3
SCR	99	288	3	96	48	7
TAP	99	288	7
TAP	100	0	1
TAP	100	0	3
TAP	100	48	2
TAP	100	96	0
TAP	100	96	4
TAP	100	192	0
STR	100	192	4
SCL	100	192	4	96	48	0
TAP	100	288	4
TAP	100	288	6
TAP	100	336	5
TAP	101	0	3
TAP	101	0	7
STR	101	96	0
SI_	101	96	0	96	48	4
TAP	101	144	0
STR	101	192	1
SI_	101	192	1	96	48	5
TAP	101	240	1
STR	101	288	2
SI_	101	288	2	96	48	6
TAP	101	336	2
STR	102	0	7
SI_	102	0	7	96	48	3
TAP	102	48	7
STR	102	96	6
SI_	102	96	6	96	48	2
TAP	102	144	6
TAP	102	192	5
TAP	102	240	5
TAP	102	288	1
TAP	102	312	3
TAP	102	336	2
TAP	102	360	6
TAP	103	0	4
TAP	103	24	5
TAP	103	48	0
TAP	103	72	2
TAP	103	96	1
TAP	103	120	7
TAP	103	144	5
TAP	103	168	6
TAP	103	192	3
TAP	103	216	4
TAP	103	240	2
TAP	103	264	5
TAP	103	288	1
TAP	103	312	6
TAP	103	336	0
TAP	103	360	7
STR	104	0	0
SCR	104	0	0	96	48	3
STR	104	0	7
SCL	104	0	7	96	48	4
TAP	104	48	1
TAP	104	48	6
BRK	104	96	0
BRK	104	96	7
TAP	106	99	0
TAP	106	147	7
STR	106	195	6
SUL	106	195	6	96	957	3
TAP	109	309	0
TAP	109	381	1
TAP	110	75	5
TAP	110	111	4
TAP	110	138	3
TAP	110	153	2

T_REC_TAP	526
T_REC_BRK	4
T_REC_XTP	0
T_REC_HLD	10
T_REC_XHO	0
T_REC_STR	208
T_REC_BST	0
T_REC_XST	0
T_REC_TTP	0
T_REC_THO	0
T_REC_SLD	208
T_REC_ALL	956
T_NUM_TAP	734
T_NUM_BRK	4
T_NUM_HLD	10
T_NUM_SLD	208
T_NUM_ALL	956
T_JUDGE_TAP	738
T_JUDGE_HLD	45
T_JUDGE_SLD	208
T_JUDGE_ALL	991
TTM_EACHPAIRS	182
TTM_SCR_TAP	367000
TTM_SCR_BRK	10400
TTM_SCR_HLD	10000
TTM_SCR_SLD	312000
TTM_SCR_ALL	699400
TTM_SCR_S	678050
TTM_SCR_SS	699000
TTM_RAT_ACV	10005

