VERSION	0.00.00	1.03.00
FES_MODE	0
BPM_DEF	190.000	190.000	190.000	190.000
MET_DEF	4	4
RESOLUTION	384
CLK_DEF	288
COMPATIBLE_CODE	MA2

BPM	0	0	190.000
MET	0	0	4	3

TAP	2	0	1
HLD	2	96	1	144
STR	2	288	1
SUR	2	288	1	96	192	4
TAP	3	192	6
HLD	3	288	6	144
STR	4	96	6
SUL	4	96	6	96	192	3
TAP	5	0	1
TAP	5	48	2
HLD	5	96	3	432
TAP	5	288	5
HLD	6	0	4	144
STR	6	192	3
SUR	6	192	3	96	192	1
STR	6	192	4
SUL	6	192	4	96	192	6
TAP	7	144	0
TAP	7	192	7
TAP	7	288	1
TAP	7	288	6
TAP	8	96	2
TAP	8	96	3
TAP	8	192	6
TAP	8	240	7
TAP	8	288	6
TAP	9	0	4
TAP	9	0	5
TAP	9	96	1
TAP	9	144	0
TAP	9	192	1
TAP	9	288	3
TAP	9	288	4
TAP	10	0	0
TAP	10	0	7
TAP	10	48	1
TAP	10	48	6
TAP	10	96	2
TAP	10	96	5
TAP	10	192	0
TAP	10	192	4
TAP	10	288	3
TAP	10	288	7
TAP	11	96	1
TAP	11	96	3
TAP	11	144	2
TAP	11	192	2
TAP	11	240	2
TAP	11	288	1
TAP	11	288	3
TAP	12	0	4
TAP	12	0	6
TAP	12	48	5
TAP	12	96	5
TAP	12	144	5
TAP	12	192	4
TAP	12	192	6
TAP	12	288	0
TAP	12	288	7
TAP	12	336	1
TAP	12	336	6
TAP	13	0	2
TAP	13	0	5
TAP	13	48	3
TAP	13	48	4
TAP	13	96	1
TAP	13	96	6
TAP	13	192	2
TAP	13	192	5
BRK	13	288	0
BRK	13	288	7
STR	14	96	1
SI_	14	96	1	96	48	4
STR	14	192	0
SI_	14	192	0	96	48	5
STR	15	0	7
SI_	15	0	7	96	48	2
STR	15	96	6
SI_	15	96	6	96	48	3
STR	15	288	0
SI_	15	288	0	96	48	4
STR	16	0	7
SI_	16	0	7	96	48	3
STR	16	192	1
SI_	16	192	1	96	48	5
STR	16	288	6
SI_	16	288	6	96	48	2
STR	17	96	1
SCR	17	96	1	96	48	4
STR	17	192	0
SCL	17	192	0	96	48	5
STR	18	0	0
SCR	18	0	0	96	48	3
STR	18	96	7
SCL	18	96	7	96	48	4
STR	18	288	7
SCR	18	288	7	96	48	2
STR	19	0	6
SCL	19	0	6	96	48	3
STR	19	192	2
SV_	19	192	2	96	48	5
TAP	20	0	0
TAP	20	0	4
TAP	20	96	1
TAP	20	96	7
TAP	20	144	0
TAP	20	192	0
TAP	20	240	0
TAP	20	288	1
TAP	20	288	7
TAP	21	0	1
TAP	21	0	3
TAP	21	48	2
TAP	21	96	2
TAP	21	144	2
TAP	21	192	1
TAP	21	192	3
TAP	21	288	0
TAP	21	288	6
TAP	21	336	7
TAP	22	0	7
TAP	22	48	7
TAP	22	96	0
TAP	22	96	6
TAP	22	192	4
TAP	22	192	6
TAP	22	240	5
TAP	22	288	5
TAP	22	336	5
TAP	23	0	4
TAP	23	0	6
TAP	23	96	1
TAP	23	96	4
TAP	23	144	2
TAP	23	192	3
TAP	23	240	1
TAP	23	288	0
TAP	23	288	4
TAP	24	0	3
TAP	24	0	6
TAP	24	48	5
TAP	24	96	4
TAP	24	144	6
TAP	24	192	3
TAP	24	192	7
TAP	24	288	0
TAP	24	288	5
TAP	24	336	0
TAP	24	336	5
TAP	25	0	1
TAP	25	0	6
TAP	25	48	1
TAP	25	48	6
TAP	25	96	2
TAP	25	96	7
TAP	25	144	2
TAP	25	144	7
TAP	25	192	1
TAP	25	192	6
TAP	25	240	1
TAP	25	240	6
TAP	25	288	2
TAP	25	288	5
TAP	25	336	2
TAP	25	336	5
BRK	26	0	0
BRK	26	0	7
STR	26	96	3
SCL	26	96	3	96	288	4
STR	27	192	5
SUR	27	192	5	96	192	2
TAP	28	192	0
TAP	28	288	1
TAP	29	0	2
STR	29	96	3
SUR	29	96	3	96	96	0
STR	29	96	7
SCL	29	96	7	96	96	4
TAP	30	0	7
TAP	30	96	6
TAP	30	192	5
STR	30	288	0
SUR	30	288	0	96	96	5
STR	30	288	4
SUR	30	288	4	96	96	1
TAP	31	192	4
TAP	31	288	5
TAP	32	0	6
STR	32	96	3
SUL	32	96	3	96	96	6
STR	32	96	7
SUL	32	96	7	96	96	2
TAP	33	0	3
TAP	33	96	2
TAP	33	192	1
STR	33	288	0
SUL	33	288	0	96	96	3
STR	33	288	4
SCR	33	288	4	96	96	7
TAP	34	192	0
TAP	34	192	2
TAP	34	288	5
TAP	34	288	7
STR	35	0	2
SCR	35	0	2	96	48	5
STR	35	0	6
SUL	35	0	6	96	48	1
STR	35	288	0
SI_	35	288	0	96	48	4
STR	35	288	7
SI_	35	288	7	96	48	3
TAP	36	192	3
TAP	36	192	4
TAP	36	288	0
TAP	36	288	7
TAP	36	336	1
TAP	36	336	6
STR	37	0	2
SUL	37	0	2	96	192	5
STR	37	0	5
SCR	37	0	5	96	192	2
TAP	38	96	0
TAP	38	96	2
TAP	38	192	4
TAP	38	192	6
TAP	38	288	1
TAP	38	288	5
TAP	39	0	3
TAP	39	0	7
TAP	39	96	1
TAP	39	144	0
TAP	39	192	1
TAP	39	288	5
TAP	39	288	7
TAP	40	0	1
TAP	40	0	3
TAP	40	96	2
TAP	40	96	6
TAP	40	192	0
TAP	40	192	4
TAP	40	288	6
TAP	40	336	7
TAP	41	0	6
TAP	41	96	0
TAP	41	96	2
TAP	41	192	5
TAP	41	192	7
TAP	41	288	1
TAP	41	288	3
TAP	42	0	4
TAP	42	0	6
TAP	42	96	0
TAP	42	96	7
TAP	42	144	1
TAP	42	144	6
TAP	42	192	2
TAP	42	192	5
TAP	42	288	0
TAP	42	288	7
TAP	43	0	0
TAP	43	0	4
TAP	43	48	1
TAP	43	48	5
TAP	43	96	2
TAP	43	96	6
TAP	43	192	3
TAP	43	192	4
TAP	43	288	3
TAP	43	288	7
TAP	43	336	2
TAP	43	336	6
TAP	44	0	1
TAP	44	0	5
TAP	44	96	0
TAP	44	144	1
TAP	44	192	2
TAP	44	240	3
TAP	44	288	0
TAP	44	288	4
TAP	45	0	1
TAP	45	0	7
TAP	45	96	3
TAP	45	96	4
TAP	45	192	0
TAP	45	192	6
TAP	45	288	7
TAP	45	336	6
TAP	46	0	5
TAP	46	48	4
TAP	46	96	3
TAP	46	96	7
TAP	46	192	0
TAP	46	192	6
TAP	46	288	3
TAP	46	288	4
TAP	47	0	1
TAP	47	0	7
TAP	47	96	0
TAP	47	96	6
TAP	47	144	0
TAP	47	144	6
TAP	47	192	5
TAP	47	192	7
TAP	47	240	5
TAP	47	240	7
TAP	47	288	2
TAP	47	288	4
TAP	48	0	1
TAP	48	0	7
TAP	48	48	1
TAP	48	48	7
TAP	48	96	0
TAP	48	96	2
TAP	48	144	0
TAP	48	144	2
TAP	48	192	3
TAP	48	192	5
TAP	48	288	2
TAP	48	288	5
TAP	48	336	1
TAP	48	336	6
STR	49	0	0
SCR	49	0	0	96	288	7
BRK	49	0	7
HLD	50	96	2	96
TAP	50	192	3
TAP	50	240	1
TAP	50	240	4
TAP	51	0	2
STR	51	0	3
SI_	51	0	3	96	48	7
TAP	51	96	6
HLD	51	288	5	96
TAP	52	0	4
TAP	52	48	3
TAP	52	48	6
STR	52	192	4
SI_	52	192	4	96	48	0
TAP	52	192	5
TAP	52	288	1
STR	53	96	1
SUR	53	96	1	96	48	5
TAP	53	192	0
TAP	53	288	7
STR	54	0	6
SUL	54	0	6	96	48	1
TAP	54	96	7
TAP	54	192	0
STR	54	288	2
SUL	54	288	2	96	48	6
TAP	55	0	3
TAP	55	96	4
STR	55	192	5
SUR	55	192	5	96	48	2
TAP	55	288	4
TAP	56	0	3
HLD	56	96	1	96
TAP	56	192	2
TAP	56	240	0
TAP	56	240	3
STR	57	0	1
SI_	57	0	1	96	48	5
STR	57	0	2
SI_	57	0	2	96	48	7
HLD	57	288	6	96
TAP	58	0	5
TAP	58	48	4
TAP	58	48	7
STR	58	192	5
SI_	58	192	5	96	48	0
STR	58	192	6
SI_	58	192	6	96	48	2
HLD	59	96	2	96
TAP	59	192	1
TAP	59	240	3
TAP	59	288	0
TAP	59	288	4
HLD	60	0	5	96
TAP	60	96	6
TAP	60	144	4
TAP	60	192	3
TAP	60	192	7
STR	60	288	1
SUL	60	288	1	96	192	6
STR	61	192	5
SUL	61	192	5	96	192	2
HLD	62	96	1	144
TAP	62	240	3
STR	62	288	2
SCR	62	288	2	96	96	5
STR	63	0	5
SCR	63	0	5	96	96	0
STR	63	96	0
SCR	63	96	0	96	96	3
TAP	63	192	3
HLD	63	288	6	144
TAP	64	48	4
STR	64	96	5
SCR	64	96	5	96	144	2
TAP	65	0	3
TAP	65	48	2
HLD	65	96	1	96
HLD	65	192	7	96
HLD	65	288	5	96
HLD	66	0	3	192
TAP	66	144	4
TAP	66	192	4
STR	66	288	0
SUR	66	288	0	96	144	2
STR	67	192	7
SUL	67	192	7	96	144	5
HLD	68	96	0	96
HLD	68	192	2	96
HLD	68	288	4	96
HLD	69	0	7	96
HLD	69	96	5	96
HLD	69	192	3	96
HLD	69	288	7	144
TAP	70	48	0
STR	70	96	0
SCL	70	96	0	96	48	5
STR	70	96	7
SCR	70	96	7	96	48	2
STR	71	0	5
SUR	71	0	5	96	96	2
TAP	71	48	2
STR	71	240	0
SI_	71	240	0	96	48	5
STR	71	288	7
SI_	71	288	7	96	48	2
TAP	72	144	1
TAP	72	144	6
STR	72	192	2
SCL	72	192	2	96	480	5
TAP	72	192	5
TAP	72	240	3
TAP	72	240	4
BRK	74	96	1
BRK	74	96	6
TAP	75	0	2
TAP	75	288	4
TAP	76	192	3
TAP	77	96	5
TAP	78	0	1
TAP	78	288	6
STR	79	192	0
SI_	79	192	0	96	48	4
STR	79	192	7
SI_	79	192	7	96	48	3
BRK	80	0	1
BRK	80	0	6
STR	80	96	0
SI_	80	96	0	96	48	3
STR	80	192	0
SI_	80	192	0	96	48	5
TAP	80	288	0
STR	81	0	7
SI_	81	0	7	96	48	4
STR	81	96	7
SI_	81	96	7	96	48	2
TAP	81	192	7
STR	81	288	0
SCR	81	288	0	96	48	3
STR	82	0	0
SCL	82	0	0	96	48	5
STR	82	96	0
SI_	82	96	0	96	48	4
TAP	82	192	0
TAP	83	0	6
TAP	83	48	5
HLD	83	96	4	96
HLD	83	192	6	96
HLD	83	288	0	96
HLD	84	0	3	97
HLD	84	96	1	96
HLD	84	192	7	96
TAP	84	288	3
TAP	84	336	0
TAP	84	336	4
STR	85	0	1
SI_	85	0	1	96	48	5
TAP	85	0	5
TAP	85	96	7
TAP	85	192	0
TAP	85	192	4
TAP	85	240	3
TAP	85	240	7
TAP	85	288	2
STR	85	288	6
SI_	85	288	6	96	48	2
TAP	86	0	0
TAP	86	96	3
TAP	86	96	7
TAP	86	144	0
TAP	86	144	4
TAP	86	192	1
TAP	86	192	5
TAP	86	240	2
TAP	86	240	6
TAP	86	288	3
TAP	86	288	7
TAP	87	0	0
TAP	87	0	4
TAP	87	48	3
TAP	87	48	7
TAP	87	96	2
TAP	87	96	6
TAP	87	144	1
TAP	87	144	5
TAP	87	192	0
TAP	87	192	4
TAP	87	288	6
TAP	87	288	7
TAP	87	336	6
TAP	87	336	7
TAP	88	0	4
TAP	88	0	5
TAP	88	48	4
TAP	88	48	5
TAP	88	96	2
TAP	88	96	3
TAP	88	144	2
TAP	88	144	3
TAP	88	192	0
TAP	88	192	1
TAP	88	240	0
TAP	88	240	1
TAP	88	288	2
TAP	88	288	3
TAP	88	336	2
TAP	88	336	3
TAP	89	0	4
TAP	89	0	5
TAP	89	48	4
TAP	89	48	5
TAP	89	96	3
TAP	89	120	2
TAP	89	144	1
TAP	89	168	0
TAP	89	192	7
TAP	89	216	6
TAP	89	240	5
TAP	89	264	4
TAP	89	288	3
TAP	89	312	2
TAP	89	336	1
TAP	89	360	0
BRK	90	0	7
STR	90	192	0
SI_	90	192	0	96	48	4
STR	90	192	7
SI_	90	192	7	96	48	3
TAP	91	48	1
TAP	91	48	5
TAP	91	96	2
TAP	91	96	6
STR	91	192	4
SI_	91	192	4	96	48	0
STR	91	192	7
SI_	91	192	7	96	48	3
TAP	92	0	1
TAP	92	48	2
HLD	92	96	3	144
TAP	92	240	6
TAP	92	288	2
TAP	92	288	5
TAP	92	336	1
TAP	92	336	4
STR	93	0	0
SI_	93	0	0	96	48	4
STR	93	0	3
SI_	93	0	3	96	48	7
TAP	93	192	6
TAP	93	240	7
HLD	93	288	0	192
STR	94	96	1
SI_	94	96	1	96	48	5
STR	94	192	0
SI_	94	192	0	96	48	4
STR	94	288	7
SI_	94	288	7	96	48	3
STR	95	0	6
SI_	95	0	6	96	48	2
HLD	95	96	3	192
TAP	95	288	7
BRK	96	0	4
TAP	96	0	5
BRK	96	96	0
BRK	96	96	7
TAP	96	192	2
BRK	96	192	3
HLD	96	288	0	144
HLD	96	288	4	144
STR	97	96	3
SV_	97	96	3	96	48	1
STR	97	96	7
SV_	97	96	7	96	48	5
STR	98	0	6
SI_	98	0	6	96	48	2
STR	98	96	7
SI_	98	96	7	96	48	3
STR	98	192	0
SI_	98	192	0	96	48	4
STR	98	288	1
SI_	98	288	1	96	48	5
STR	99	0	2
SI_	99	0	2	96	48	6
BRK	99	96	0
TAP	99	192	1
TAP	99	240	2
HLD	99	288	3	144
TAP	100	48	7
TAP	100	96	0
TAP	100	96	4
TAP	100	192	2
TAP	100	192	6
STR	100	288	0
SV_	100	288	0	96	48	2
STR	100	288	4
SV_	100	288	4	96	48	6
TAP	101	96	6
TAP	101	96	7
TAP	101	144	6
TAP	101	144	7
TAP	101	192	0
TAP	101	192	1
TAP	101	240	0
TAP	101	240	1
TAP	101	288	2
TAP	101	288	6
TAP	101	336	2
TAP	101	336	6
TAP	102	0	4
TAP	102	0	5
TAP	102	48	4
TAP	102	48	5
TAP	102	96	2
TAP	102	96	3
TAP	102	144	2
TAP	102	144	3
TAP	102	192	1
TAP	102	192	5
TAP	102	240	1
TAP	102	240	5
TAP	102	288	0
TAP	102	312	7
TAP	102	336	0
TAP	102	360	7
TAP	103	0	0
TAP	103	24	7
TAP	103	48	0
TAP	103	72	7
TAP	103	96	0
TAP	103	120	7
TAP	103	144	0
TAP	103	168	7
TAP	103	192	0
TAP	103	216	7
TAP	103	240	0
TAP	103	264	7
TAP	103	288	0
TAP	103	312	7
TAP	103	336	0
TAP	103	360	7
BRK	104	0	1
BRK	104	0	6
BRK	104	48	2
BRK	104	48	5
STR	104	96	3
SCL	104	96	3	96	480	4
STR	104	96	4
SCR	104	96	4	96	480	3
STR	106	195	1
SUR	106	195	1	96	960	4
TAP	109	309	7
TAP	109	381	6
TAP	110	75	2
TAP	110	111	3
TAP	110	138	4
TAP	110	153	5

T_REC_TAP	440
T_REC_BRK	19
T_REC_XTP	0
T_REC_HLD	35
T_REC_XHO	0
T_REC_STR	93
T_REC_BST	0
T_REC_XST	0
T_REC_TTP	0
T_REC_THO	0
T_REC_SLD	93
T_REC_ALL	680
T_NUM_TAP	533
T_NUM_BRK	19
T_NUM_HLD	35
T_NUM_SLD	93
T_NUM_ALL	680
T_JUDGE_TAP	552
T_JUDGE_HLD	94
T_JUDGE_SLD	93
T_JUDGE_ALL	739
TTM_EACHPAIRS	175
TTM_SCR_TAP	266500
TTM_SCR_BRK	49400
TTM_SCR_HLD	35000
TTM_SCR_SLD	139500
TTM_SCR_ALL	490400
TTM_SCR_S	473850
TTM_SCR_SS	488500
TTM_RAT_ACV	10038

