VERSION	0.00.00	1.03.00
FES_MODE	0
BPM_DEF	190.000	190.000	190.000	190.000
MET_DEF	4	4
RESOLUTION	384
CLK_DEF	288
COMPATIBLE_CODE	MA2

BPM	0	0	190.000
MET	0	0	4	3

TAP	2	0	1
HLD	2	96	1	192
STR	2	288	0
SI_	2	288	0	96	96	4
TAP	3	192	6
HLD	3	288	6	192
STR	4	96	7
SI_	4	96	7	96	96	3
TAP	5	0	2
HLD	5	96	2	192
TAP	5	288	3
HLD	6	0	3	192
TAP	6	192	4
HLD	6	288	4	192
TAP	7	96	5
TAP	7	192	2
TAP	7	288	0
TAP	7	288	7
HLD	8	96	3	192
STR	8	288	2
SI_	8	288	2	96	96	6
TAP	9	192	5
HLD	9	288	4	192
STR	10	96	5
SI_	10	96	5	96	96	1
TAP	11	0	6
TAP	11	96	0
TAP	11	96	7
TAP	11	192	1
TAP	11	288	1
TAP	12	0	0
TAP	12	0	7
TAP	12	96	6
TAP	12	192	6
TAP	12	288	0
TAP	12	288	7
TAP	13	0	1
TAP	13	0	6
TAP	13	96	2
TAP	13	96	5
TAP	13	192	3
TAP	13	192	4
BRK	13	288	1
BRK	13	288	6
TAP	14	96	2
TAP	14	192	2
TAP	14	288	1
TAP	14	288	3
TAP	15	0	0
TAP	15	96	0
TAP	15	192	1
TAP	15	192	7
TAP	15	288	5
TAP	16	0	5
TAP	16	96	4
TAP	16	96	6
TAP	16	192	7
TAP	16	288	7
TAP	17	0	0
TAP	17	0	6
TAP	17	96	2
TAP	17	192	3
TAP	17	288	1
TAP	17	288	4
TAP	18	0	5
TAP	18	96	4
TAP	18	192	3
TAP	18	192	6
TAP	18	288	7
TAP	19	0	0
TAP	19	96	1
TAP	19	96	6
TAP	19	192	2
TAP	19	192	5
TAP	19	288	0
TAP	19	288	7
TAP	20	96	1
TAP	20	96	6
TAP	20	192	0
TAP	20	240	7
TAP	20	288	0
TAP	21	0	1
TAP	21	0	6
TAP	21	96	2
TAP	21	144	3
TAP	21	192	2
TAP	21	288	3
TAP	21	288	4
TAP	22	0	5
TAP	22	48	4
TAP	22	96	5
TAP	22	192	1
TAP	22	192	6
TAP	22	288	7
TAP	22	336	0
TAP	23	0	7
HLD	23	96	1	192
TAP	23	192	3
TAP	23	240	3
TAP	23	288	3
HLD	24	0	6	192
TAP	24	96	4
TAP	24	144	4
TAP	24	192	4
TAP	24	288	0
TAP	24	336	7
TAP	25	0	0
TAP	25	48	7
TAP	25	96	0
TAP	25	144	7
TAP	25	192	1
TAP	25	240	6
TAP	25	288	1
TAP	25	336	6
STR	26	0	1
SUR	26	0	1	96	288	3
STR	27	192	6
SUL	27	192	6	96	288	4
STR	29	0	0
SUR	29	0	0	96	288	2
STR	30	192	7
SUL	30	192	7	96	288	5
HLD	32	0	0	576
STR	32	96	6
SI_	32	96	6	96	192	2
HLD	33	192	7	576
STR	33	288	1
SI_	33	288	1	96	192	5
HLD	35	0	1	576
STR	35	96	3
SI_	35	96	3	96	192	7
HLD	36	192	6	576
STR	36	288	4
SI_	36	288	4	96	192	0
TAP	38	0	1
TAP	38	96	2
TAP	38	192	2
TAP	38	288	2
TAP	38	288	3
TAP	39	0	5
TAP	39	96	5
TAP	39	192	4
TAP	39	192	5
TAP	39	288	1
TAP	40	0	1
TAP	40	96	1
TAP	40	96	2
TAP	40	192	6
TAP	40	288	6
TAP	41	0	5
TAP	41	0	6
TAP	41	96	2
TAP	41	192	2
TAP	41	288	1
TAP	41	288	3
TAP	42	0	5
TAP	42	96	5
TAP	42	192	4
TAP	42	192	6
TAP	42	288	3
TAP	43	0	4
TAP	43	96	2
TAP	43	96	5
TAP	43	192	1
TAP	43	192	6
TAP	43	288	0
TAP	43	288	1
TAP	44	0	6
TAP	44	0	7
TAP	44	96	0
TAP	44	192	1
TAP	44	288	2
TAP	44	288	7
TAP	45	0	3
TAP	45	96	4
TAP	45	192	2
TAP	45	192	5
TAP	45	288	6
TAP	46	0	7
TAP	46	96	0
TAP	46	96	5
TAP	46	192	1
TAP	46	288	2
TAP	47	0	3
TAP	47	96	0
TAP	47	96	4
TAP	47	192	1
TAP	47	192	5
TAP	47	288	2
TAP	47	288	6
TAP	48	0	3
TAP	48	0	7
TAP	48	96	2
TAP	48	96	6
TAP	48	192	1
TAP	48	192	5
TAP	48	288	0
TAP	48	336	7
TAP	49	0	0
TAP	49	48	7
TAP	49	96	0
TAP	49	144	7
TAP	49	192	0
TAP	49	288	1
TAP	49	288	6
TAP	50	0	2
TAP	50	0	5
HLD	50	96	3	144
TAP	50	240	4
TAP	50	288	4
STR	51	0	1
SI_	51	0	1	96	72	5
HLD	51	288	4	144
TAP	52	48	3
TAP	52	96	3
STR	52	192	6
SI_	52	192	6	96	72	2
TAP	53	96	2
TAP	53	192	3
TAP	53	288	1
TAP	53	288	4
TAP	54	0	5
TAP	54	96	4
TAP	54	192	3
TAP	54	192	6
TAP	54	288	7
TAP	55	0	0
TAP	55	96	1
TAP	55	96	6
TAP	55	192	2
TAP	55	288	5
TAP	56	0	3
TAP	56	0	4
HLD	56	96	2	144
TAP	56	240	3
TAP	56	288	3
STR	57	0	0
SI_	57	0	0	96	72	4
HLD	57	288	5	144
TAP	58	48	4
TAP	58	96	4
STR	58	192	7
SI_	58	192	7	96	72	3
TAP	59	96	1
TAP	59	192	0
TAP	59	288	2
TAP	59	288	7
TAP	60	0	6
TAP	60	96	7
TAP	60	192	0
TAP	60	192	5
TAP	60	288	1
TAP	60	288	6
TAP	61	0	2
TAP	61	0	5
STR	61	96	3
SV_	61	96	3	96	192	1
STR	61	96	4
SV_	61	96	4	96	192	6
HLD	62	96	2	144
TAP	62	240	3
TAP	62	288	3
TAP	63	0	4
TAP	63	96	3
TAP	63	192	1
TAP	63	192	6
HLD	63	288	5	144
TAP	64	48	4
TAP	64	96	4
TAP	64	192	1
TAP	64	192	6
TAP	65	0	0
TAP	65	48	7
TAP	65	96	0
TAP	65	192	1
TAP	65	192	6
TAP	65	288	2
TAP	65	288	5
HLD	66	0	3	144
HLD	66	0	4	144
STR	66	192	3
SCL	66	192	3	96	192	0
STR	66	192	4
SCR	66	192	4	96	192	7
TAP	67	192	1
TAP	67	192	6
TAP	68	0	3
TAP	68	48	4
TAP	68	96	3
TAP	68	192	4
TAP	68	192	5
TAP	68	288	4
TAP	68	288	5
TAP	69	0	0
TAP	69	0	7
TAP	69	96	2
TAP	69	96	3
STR	69	192	2
SCL	69	192	2	96	192	5
TAP	69	192	3
TAP	70	192	1
TAP	70	192	6
STR	71	0	0
SI_	71	0	0	96	96	5
STR	71	0	1
SI_	71	0	1	96	96	4
STR	71	288	6
SI_	71	288	6	96	96	3
STR	71	288	7
SI_	71	288	7	96	96	2
STR	72	192	3
SCL	72	192	3	96	144	0
STR	72	192	4
SCR	72	192	4	96	144	7
TAP	73	192	1
TAP	73	192	6
TAP	73	288	2
TAP	73	288	5
TAP	74	0	3
TAP	74	0	4
BRK	74	96	0
BRK	74	96	7
TAP	75	192	1
TAP	75	192	2
TAP	75	288	3
TAP	75	288	4
TAP	77	0	5
TAP	77	0	6
TAP	77	96	3
TAP	77	96	4
STR	78	0	0
SI_	78	0	0	96	96	4
STR	78	0	1
SI_	78	0	1	96	96	4
STR	78	288	6
SI_	78	288	6	96	96	3
STR	78	288	7
SI_	78	288	7	96	96	3
STR	79	192	0
SV_	79	192	0	96	72	3
STR	79	192	7
SV_	79	192	7	96	72	4
TAP	80	96	5
TAP	80	192	5
TAP	80	288	4
TAP	80	288	6
TAP	81	0	7
TAP	81	96	7
TAP	81	192	0
TAP	81	192	6
TAP	81	288	2
TAP	82	0	2
TAP	82	96	1
TAP	82	96	3
TAP	82	192	0
TAP	82	288	0
TAP	83	0	1
TAP	83	0	7
TAP	83	96	2
TAP	83	192	3
TAP	83	288	1
TAP	83	288	4
TAP	84	0	5
TAP	84	96	4
TAP	84	192	3
TAP	84	192	6
TAP	84	288	2
TAP	85	0	3
TAP	85	96	0
TAP	85	96	6
TAP	85	192	5
TAP	85	288	4
TAP	86	0	1
TAP	86	0	7
TAP	86	96	2
TAP	86	192	3
TAP	86	192	4
TAP	86	288	6
TAP	86	288	7
TAP	87	0	5
TAP	87	96	3
TAP	87	96	4
TAP	87	192	0
TAP	87	192	1
TAP	87	288	6
TAP	87	288	7
TAP	88	0	4
TAP	88	0	5
TAP	88	96	2
TAP	88	96	3
TAP	88	192	0
TAP	88	192	1
TAP	88	288	2
TAP	88	288	3
TAP	89	0	4
TAP	89	0	5
TAP	89	96	3
TAP	89	144	4
TAP	89	192	3
TAP	89	240	4
TAP	89	288	3
BRK	90	0	1
BRK	90	0	6
STR	90	192	2
SI_	90	192	2	96	72	7
TAP	91	48	6
STR	91	96	6
SI_	91	96	6	96	72	3
STR	92	0	1
SI_	92	0	1	96	72	4
TAP	92	240	5
STR	92	288	5
SI_	92	288	5	96	72	0
TAP	93	192	0
TAP	93	240	7
HLD	93	288	0	192
TAP	94	96	7
TAP	94	192	6
TAP	94	288	3
TAP	95	0	2
TAP	95	0	4
TAP	95	96	1
TAP	95	192	4
TAP	95	288	3
TAP	95	288	5
TAP	96	0	1
TAP	96	0	4
TAP	96	96	3
TAP	96	96	6
TAP	96	192	0
TAP	96	192	7
HLD	96	288	1	144
HLD	96	288	6	144
STR	97	96	1
SI_	97	96	1	96	96	4
STR	97	96	6
SI_	97	96	6	96	96	3
TAP	98	0	2
TAP	98	0	5
TAP	98	96	0
TAP	98	96	1
TAP	98	192	6
TAP	98	192	7
TAP	98	288	3
TAP	98	288	4
STR	99	0	2
SI_	99	0	2	96	96	7
STR	99	0	5
SI_	99	0	5	96	96	0
TAP	99	288	1
TAP	99	288	6
TAP	100	0	3
TAP	100	0	4
TAP	100	48	3
TAP	100	48	4
TAP	100	96	3
TAP	100	96	4
TAP	100	192	2
TAP	100	192	5
TAP	100	288	0
TAP	100	288	7
TAP	100	336	0
TAP	100	336	7
TAP	101	0	0
TAP	101	0	7
TAP	101	96	2
TAP	101	144	2
TAP	101	192	2
TAP	101	240	2
TAP	101	288	1
TAP	101	288	3
TAP	102	0	5
TAP	102	48	5
TAP	102	96	5
TAP	102	144	5
TAP	102	192	4
TAP	102	192	6
TAP	102	288	2
TAP	102	336	3
TAP	103	0	4
TAP	103	48	5
TAP	103	96	6
TAP	103	144	7
TAP	103	192	0
TAP	103	240	1
TAP	103	288	2
TAP	103	336	3
TAP	104	0	4
TAP	104	48	5
BRK	104	96	1
BRK	104	96	6
TAP	106	96	0
TAP	106	144	7
HLD	106	192	0	144
TAP	106	336	7
TAP	107	0	7
TAP	107	108	6
TAP	107	216	5
TAP	107	324	4
STR	108	60	3
SCL	108	60	3	96	804	4

T_REC_TAP	384
T_REC_BRK	8
T_REC_XTP	0
T_REC_HLD	25
T_REC_XHO	0
T_REC_STR	42
T_REC_BST	0
T_REC_XST	0
T_REC_TTP	0
T_REC_THO	0
T_REC_SLD	42
T_REC_ALL	501
T_NUM_TAP	426
T_NUM_BRK	8
T_NUM_HLD	25
T_NUM_SLD	42
T_NUM_ALL	501
T_JUDGE_TAP	434
T_JUDGE_HLD	121
T_JUDGE_SLD	42
T_JUDGE_ALL	597
TTM_EACHPAIRS	120
TTM_SCR_TAP	213000
TTM_SCR_BRK	20800
TTM_SCR_HLD	25000
TTM_SCR_SLD	63000
TTM_SCR_ALL	321800
TTM_SCR_S	311400
TTM_SCR_SS	321000
TTM_RAT_ACV	10024

