VERSION	0.00.00	1.03.00
FES_MODE	0
BPM_DEF	190.000	190.000	190.000	190.000
MET_DEF	4	4
RESOLUTION	384
CLK_DEF	288
COMPATIBLE_CODE	MA2

BPM	0	0	190.000
MET	0	0	4	3

TAP	2	96	0
TAP	3	0	0
TAP	3	288	1
TAP	4	192	1
TAP	5	96	2
TAP	6	0	2
HLD	6	288	3	288
HLD	6	288	4	288
TAP	8	96	5
TAP	9	0	5
TAP	9	288	6
TAP	10	192	6
TAP	11	96	6
TAP	11	96	7
TAP	12	0	0
TAP	12	0	1
HLD	12	288	7	288
TAP	14	96	0
TAP	14	192	0
TAP	15	0	0
TAP	15	96	0
TAP	15	288	7
TAP	16	0	7
TAP	16	192	7
TAP	16	288	7
TAP	17	96	6
TAP	17	192	6
TAP	18	0	6
TAP	18	96	6
TAP	18	288	5
TAP	19	0	5
TAP	19	192	4
TAP	19	192	5
TAP	19	288	4
TAP	19	288	5
TAP	20	96	4
TAP	20	192	4
TAP	21	0	3
TAP	21	96	3
TAP	21	288	2
TAP	22	0	2
TAP	22	192	2
TAP	22	192	3
TAP	22	288	2
TAP	22	288	3
TAP	23	96	2
TAP	23	192	2
TAP	24	0	3
TAP	24	96	3
TAP	24	288	4
TAP	25	0	4
TAP	25	192	4
TAP	25	192	5
TAP	25	288	4
TAP	25	288	5
STR	26	96	6
SI_	26	96	6	96	480	3
STR	29	96	1
SI_	29	96	1	96	480	4
STR	32	96	5
SI_	32	96	5	96	480	2
STR	35	96	1
SI_	35	96	1	96	480	6
TAP	38	96	6
TAP	38	192	6
TAP	39	0	5
TAP	39	96	5
TAP	39	288	4
TAP	40	0	4
TAP	40	192	3
TAP	40	288	3
TAP	41	96	2
TAP	41	192	2
TAP	42	0	1
TAP	42	96	1
HLD	42	288	0	288
HLD	42	288	7	288
TAP	44	96	1
TAP	44	192	1
TAP	45	0	2
TAP	45	96	2
TAP	45	288	3
TAP	46	0	3
TAP	46	192	4
TAP	46	288	4
TAP	47	96	5
TAP	47	192	5
TAP	48	0	6
TAP	48	96	6
HLD	48	288	0	288
HLD	48	288	7	288
HLD	50	96	0	144
HLD	50	96	1	144
TAP	51	0	0
TAP	51	0	1
HLD	51	288	6	144
HLD	51	288	7	144
TAP	52	192	6
TAP	52	192	7
TAP	53	96	0
TAP	53	288	1
TAP	54	0	1
TAP	54	192	2
TAP	54	288	2
TAP	55	192	3
TAP	55	192	4
HLD	56	96	4	144
HLD	56	96	5	144
TAP	57	0	4
TAP	57	0	5
HLD	57	288	2	144
HLD	57	288	3	144
TAP	58	192	2
TAP	58	192	3
TAP	59	96	4
TAP	59	288	5
TAP	60	0	5
TAP	60	192	6
HLD	60	288	6	288
HLD	62	96	7	288
TAP	63	0	0
HLD	63	288	0	288
TAP	64	192	7
HLD	65	96	6	288
TAP	66	0	7
HLD	66	288	1	288
TAP	67	192	0
TAP	68	96	1
TAP	68	288	2
TAP	68	288	3
TAP	69	0	2
TAP	69	0	3
TAP	69	288	3
TAP	70	96	4
TAP	70	96	5
TAP	70	192	4
TAP	70	192	5
TAP	71	96	5
TAP	71	288	6
TAP	71	288	7
TAP	72	0	6
TAP	72	0	7
HLD	72	288	0	288
HLD	72	288	7	288
STR	74	96	0
SI_	74	96	0	96	480	5
STR	74	96	1
SI_	74	96	1	96	480	4
STR	77	96	6
SI_	77	96	6	96	480	3
STR	77	96	7
SI_	77	96	7	96	480	2
TAP	80	96	0
TAP	80	96	1
TAP	80	288	1
TAP	81	0	1
TAP	81	288	6
TAP	81	288	7
TAP	82	96	6
TAP	82	192	6
TAP	83	96	0
TAP	83	192	0
TAP	84	0	7
TAP	84	96	7
HLD	84	288	6	288
TAP	85	192	7
HLD	86	96	1	288
TAP	87	0	0
HLD	87	288	7	288
TAP	88	192	0
HLD	89	96	0	288
BRK	90	0	7
TAP	90	288	6
TAP	91	0	6
TAP	91	96	6
TAP	91	192	5
TAP	92	96	5
TAP	92	192	5
TAP	92	288	5
TAP	93	0	4
TAP	93	288	3
TAP	93	288	4
TAP	94	96	2
TAP	94	96	5
TAP	94	192	2
TAP	94	192	5
TAP	95	0	1
TAP	95	0	6
TAP	95	96	1
TAP	95	96	6
TAP	95	288	0
TAP	95	288	7
BRK	96	0	0
BRK	96	0	7
TAP	96	288	1
TAP	97	0	1
TAP	97	96	1
TAP	97	192	2
TAP	98	96	2
TAP	98	192	2
TAP	98	288	2
TAP	99	0	3
TAP	99	288	4
TAP	100	0	4
TAP	100	96	4
TAP	100	192	5
HLD	101	96	6	288
HLD	102	288	0	288
HLD	102	288	7	288
BRK	104	96	1
BRK	104	96	6
TAP	106	195	1
TAP	107	114	2
HLD	108	63	3	630
TAP	110	138	3
TAP	110	138	4

T_REC_TAP	165
T_REC_BRK	5
T_REC_XTP	0
T_REC_HLD	30
T_REC_XHO	0
T_REC_STR	8
T_REC_BST	0
T_REC_XST	0
T_REC_TTP	0
T_REC_THO	0
T_REC_SLD	8
T_REC_ALL	216
T_NUM_TAP	173
T_NUM_BRK	5
T_NUM_HLD	30
T_NUM_SLD	8
T_NUM_ALL	216
T_JUDGE_TAP	178
T_JUDGE_HLD	164
T_JUDGE_SLD	8
T_JUDGE_ALL	350
TTM_EACHPAIRS	41
TTM_SCR_TAP	86500
TTM_SCR_BRK	13000
TTM_SCR_HLD	30000
TTM_SCR_SLD	12000
TTM_SCR_ALL	141500
TTM_SCR_S	136800
TTM_SCR_SS	141000
TTM_RAT_ACV	10035

