VERSION	0.00.00	1.03.00
FES_MODE	0
BPM_DEF	127.000	127.000	127.000	127.000
MET_DEF	4	4
RESOLUTION	384
CLK_DEF	384
COMPATIBLE_CODE	MA2

BPM	0	0	127.000
MET	0	0	4	4
CLK	0	0
CLK	0	96
CLK	0	192
CLK	0	288

TAP	1	0	1
HLD	1	0	4	160
TAP	1	32	1
TAP	1	64	1
TAP	1	96	2
TAP	1	128	2
TAP	1	160	2
HLD	1	192	3	160
TAP	1	192	6
TAP	1	224	6
TAP	1	256	6
TAP	1	288	5
TAP	1	320	5
TAP	1	352	5
TAP	2	0	3
TAP	2	0	4
TAP	2	48	2
TAP	2	72	3
TAP	2	96	2
TAP	2	144	5
TAP	2	168	4
TAP	2	192	5
TAP	2	240	0
TAP	2	264	7
TAP	2	288	0
TAP	2	336	4
TAP	2	360	3
STR	3	0	3
SUR	3	0	3	96	192	4
STR	3	0	4
SCR	3	0	4	96	192	3
TAP	4	0	2
TAP	4	0	4
TAP	4	48	7
TAP	4	96	7
TAP	4	120	2
TAP	4	168	2
TAP	4	192	3
TAP	4	192	5
TAP	4	240	2
TAP	4	240	4
TAP	4	288	3
TAP	4	288	4
TAP	4	312	3
TAP	4	312	4
BRK	4	360	0
BRK	4	360	5
TAP	5	24	4
TAP	5	48	3
TAP	5	96	4
TAP	5	96	6
TAP	5	144	3
TAP	5	144	5
HLD	5	192	2	120
TAP	5	192	4
TAP	5	240	3
TAP	5	264	3
TAP	5	312	1
TAP	5	336	2
TAP	5	360	3
TAP	6	24	4
TAP	6	48	3
TAP	6	48	5
TAP	6	96	1
TAP	6	96	3
TAP	6	144	3
TAP	6	144	5
TAP	6	192	4
TAP	6	216	3
TAP	6	240	4
HLD	6	264	1	48
HLD	6	312	7	48
TAP	6	360	5
TAP	7	24	4
TAP	7	48	3
TAP	7	48	4
TAP	7	96	2
TAP	7	96	3
TAP	7	144	1
TAP	7	168	0
TAP	7	192	2
HLD	7	192	7	168
TAP	7	240	5
TAP	7	264	5
TAP	7	312	3
STR	7	360	2
SCR	7	360	2	96	72	7
HLD	8	48	2	144
TAP	8	192	0
TAP	8	216	1
STR	8	264	2
SCL	8	264	2	96	72	6
TAP	8	264	4
TAP	8	312	3
TAP	8	312	5
TAP	8	360	2
HLD	8	360	4	72
TAP	9	96	4
TAP	9	96	5
TAP	9	144	2
TAP	9	144	3
TAP	9	192	3
HLD	9	192	5	120
TAP	9	240	4
TAP	9	264	4
TAP	9	312	6
TAP	9	336	5
TAP	9	360	4
TAP	10	24	3
TAP	10	48	2
TAP	10	48	4
TAP	10	96	4
TAP	10	96	6
TAP	10	144	2
TAP	10	144	4
TAP	10	192	3
TAP	10	216	4
TAP	10	240	3
HLD	10	264	6	48
HLD	10	312	4	48
TAP	10	360	2
TAP	11	24	4
TAP	11	48	3
TAP	11	48	5
TAP	11	96	2
TAP	11	96	4
TAP	11	144	1
TAP	11	168	0
TAP	11	192	2
HLD	11	192	7	168
TAP	11	240	5
TAP	11	264	5
TAP	11	312	3
STR	11	360	2
SCL	11	360	2	96	72	5
HLD	12	48	2	72
TAP	12	192	2
TAP	12	192	4
TAP	12	240	1
TAP	12	264	0
TAP	12	288	2
TAP	12	312	7
TAP	12	336	3
TAP	12	360	6
TAP	13	0	4
HLD	13	0	5	96
TAP	13	48	6
HLD	13	96	4	96
TAP	13	144	7
HLD	13	192	5	96
TAP	13	240	6
HLD	13	288	3	96
TAP	13	336	7
HLD	14	0	5	96
TAP	14	48	6
HLD	14	96	2	96
TAP	14	144	7
HLD	14	192	5	96
TAP	14	240	6
TAP	14	288	1
TAP	14	312	4
TAP	14	336	3
TAP	14	360	4
HLD	15	0	2	96
TAP	15	0	3
TAP	15	48	1
HLD	15	96	3	96
TAP	15	144	0
HLD	15	192	2	96
TAP	15	240	1
HLD	15	288	4	96
TAP	15	336	0
HLD	16	0	2	96
TAP	16	48	1
HLD	16	96	5	96
TAP	16	144	0
STR	16	192	2
SCR	16	192	2	96	32	4
HLD	16	240	6	48
TAP	16	240	7
TAP	16	256	0
TAP	16	272	1
TAP	16	288	2
TAP	17	0	4
HLD	17	0	5	96
TAP	17	48	6
HLD	17	96	4	96
TAP	17	144	7
HLD	17	192	5	96
TAP	17	240	6
HLD	17	288	3	96
TAP	17	336	0
HLD	18	0	5	96
TAP	18	48	6
HLD	18	96	2	96
TAP	18	144	1
HLD	18	192	5	96
TAP	18	240	6
TAP	18	288	1
TAP	18	312	4
TAP	18	336	3
TAP	18	360	4
HLD	19	0	2	96
TAP	19	0	3
TAP	19	48	1
HLD	19	96	3	96
TAP	19	144	0
HLD	19	192	2	96
TAP	19	240	1
HLD	19	288	4	96
TAP	19	336	7
HLD	20	0	2	96
TAP	20	48	1
HLD	20	96	5	96
TAP	20	144	6
STR	20	192	2
SCR	20	192	2	96	48	5
HLD	20	240	6	48
TAP	20	240	7
TAP	20	256	0
TAP	20	272	1
TAP	20	288	2
TAP	21	0	1
TAP	21	0	6
TAP	21	48	3
TAP	21	48	4
TAP	21	96	5
TAP	21	120	4
TAP	21	144	6
TAP	21	192	2
TAP	21	192	3
TAP	21	240	4
TAP	21	264	3
TAP	21	312	5
HLD	21	336	4	192
TAP	22	0	6
TAP	22	48	7
TAP	22	72	7
TAP	22	120	0
STR	22	144	0
SSL	22	144	0	96	48	4
TAP	22	192	3
TAP	22	240	2
TAP	22	288	1
TAP	22	336	0
TAP	22	360	7
TAP	23	24	6
TAP	23	48	5
TAP	23	96	3
TAP	23	120	4
HLD	23	144	2	120
TAP	23	192	1
TAP	23	216	1
STR	23	264	6
SI_	23	264	6	96	48	2
TAP	23	312	0
TAP	23	312	7
TAP	23	360	6
TAP	24	24	1
TAP	24	48	0
TAP	24	96	1
TAP	24	96	3
TAP	24	144	4
TAP	24	168	3
TAP	24	192	5
TAP	24	216	4
TAP	24	216	6
TAP	24	264	3
TAP	24	264	5
TAP	24	312	2
TAP	24	312	4
TAP	24	360	1
TAP	24	360	3
TAP	25	24	0
TAP	25	48	7
TAP	25	96	1
TAP	25	120	0
TAP	25	144	2
TAP	25	192	6
TAP	25	216	7
TAP	25	240	5
TAP	25	288	1
TAP	25	312	0
HLD	25	336	3	288
TAP	26	0	0
TAP	26	48	6
TAP	26	96	1
TAP	26	144	5
TAP	26	192	2
TAP	26	240	4
TAP	26	288	1
TAP	26	288	4
TAP	26	312	1
TAP	26	312	4
STR	26	360	2
SCR	26	360	2	96	48	5
TAP	26	360	7
TAP	27	24	1
TAP	27	48	1
STR	27	96	7
SCL	27	96	7	96	48	4
TAP	27	144	7
TAP	27	192	1
TAP	27	264	2
TAP	27	264	3
HLD	27	336	0	192
TAP	27	336	5
TAP	28	0	4
TAP	28	48	3
TAP	28	96	2
TAP	28	144	1
TAP	28	192	0
TAP	28	192	7
TAP	28	216	0
TAP	28	216	7
TAP	28	264	4
TAP	28	264	6
TAP	28	312	1
TAP	28	312	3
TAP	28	360	2
TAP	28	360	5
TAP	29	24	3
TAP	29	48	4
TAP	29	96	2
TAP	29	120	3
TAP	29	144	1
TAP	29	192	4
TAP	29	192	5
TAP	29	240	3
TAP	29	264	4
TAP	29	312	2
HLD	29	336	3	192
TAP	30	0	1
TAP	30	48	0
TAP	30	72	0
TAP	30	120	7
STR	30	144	7
SCR	30	144	7	96	72	3
TAP	30	192	4
TAP	30	240	5
TAP	30	288	6
TAP	30	336	7
TAP	30	360	4
TAP	31	24	6
TAP	31	48	1
TAP	31	96	4
TAP	31	120	3
HLD	31	144	5	216
TAP	31	192	6
TAP	31	216	6
STR	31	264	3
SCL	31	264	3	96	48	7
TAP	31	312	2
TAP	31	360	3
TAP	32	24	6
TAP	32	48	6
TAP	32	96	4
TAP	32	96	5
TAP	32	144	3
TAP	32	168	4
TAP	32	192	2
TAP	32	216	1
TAP	32	216	3
TAP	32	264	2
TAP	32	264	4
TAP	32	312	3
TAP	32	312	5
TAP	32	360	4
TAP	32	360	6
TAP	33	24	7
TAP	33	48	0
TAP	33	96	4
TAP	33	120	3
TAP	33	144	6
TAP	33	192	3
TAP	33	216	4
TAP	33	240	1
TAP	33	288	3
TAP	33	288	4
TAP	33	336	2
HLD	33	336	5	96
TAP	34	0	6
TAP	34	48	0
TAP	34	96	1
TAP	34	96	3
TAP	34	144	4
TAP	34	144	6
TAP	34	192	2
TAP	34	216	3
TAP	34	240	2
TAP	34	288	1
TAP	34	288	4
STR	34	336	2
SCR	34	336	2	96	48	5
TAP	35	0	0
TAP	35	48	7
TAP	35	96	6
TAP	35	144	3
TAP	35	144	4
TAP	35	192	5
TAP	35	192	6
STR	35	264	1
SI_	35	264	1	96	24	6
STR	35	264	2
SI_	35	264	2	96	24	5
TAP	35	336	1
TAP	35	336	2
TAP	36	48	7
TAP	36	72	6
TAP	36	96	0
TAP	36	120	5
TAP	36	144	1
TAP	36	168	4
TAP	36	192	2
TAP	36	192	3
BRK	36	240	2
BRK	36	240	7
HLD	37	0	2	96
TAP	37	0	3
TAP	37	48	0
HLD	37	96	3	96
TAP	37	144	0
HLD	37	192	2	96
STR	37	240	0
SCR	37	240	0	96	48	4
TAP	37	288	3
TAP	37	336	0
HLD	38	0	5	96
TAP	38	48	7
HLD	38	96	4	96
TAP	38	144	7
HLD	38	192	5	96
STR	38	240	7
SCL	38	240	7	96	48	3
TAP	38	288	4
TAP	38	336	7
HLD	39	0	2	96
TAP	39	48	0
HLD	39	96	3	96
TAP	39	144	0
TAP	39	192	2
TAP	39	240	0
STR	39	288	3
SUR	39	288	3	96	48	7
STR	39	288	4
SCR	39	288	4	96	48	6
STR	40	0	3
SCL	40	0	3	96	48	1
STR	40	0	4
SUL	40	0	4	96	48	0
STR	40	96	3
SUR	40	96	3	96	96	4
STR	40	96	4
SCR	40	96	4	96	96	3
TAP	40	192	3
TAP	40	192	4
TAP	41	0	4
HLD	41	0	5	96
TAP	41	48	7
HLD	41	96	4	96
TAP	41	144	7
HLD	41	192	5	96
STR	41	240	7
SCL	41	240	7	96	48	3
TAP	41	288	4
TAP	41	336	7
HLD	42	0	2	96
TAP	42	48	0
HLD	42	96	3	96
TAP	42	144	0
HLD	42	192	2	96
STR	42	240	0
SCR	42	240	0	96	48	4
TAP	42	288	3
TAP	42	336	0
TAP	43	0	6
TAP	43	48	4
TAP	43	48	5
TAP	43	96	2
TAP	43	96	3
TAP	43	144	0
TAP	43	144	1
TAP	43	192	6
TAP	43	192	7
TAP	43	288	3
STR	43	288	4
SI_	43	288	4	96	24	0
BRK	44	0	4
BRK	44	0	5
TAP	44	192	2
TAP	44	192	4
TAP	44	240	3
TAP	44	240	5
TAP	44	288	3
TAP	44	288	4
TAP	44	312	3
TAP	44	312	4
BRK	44	360	2
BRK	44	360	7
TAP	45	96	4
TAP	45	96	6
TAP	45	144	1
TAP	45	144	3
TAP	45	192	3
HLD	45	192	5	72
TAP	45	240	7
HLD	45	264	7	48
TAP	45	312	6
TAP	45	336	7
TAP	45	360	4
TAP	46	24	3
HLD	46	48	3	96
TAP	46	48	7
TAP	46	96	1
TAP	46	144	5
TAP	46	192	4
TAP	46	216	3
TAP	46	240	4
HLD	46	264	1	48
HLD	46	312	7	48
TAP	46	360	5
TAP	47	24	4
TAP	47	48	3
TAP	47	48	4
TAP	47	96	2
TAP	47	96	3
TAP	47	144	1
TAP	47	168	0
TAP	47	192	2
HLD	47	192	7	168
TAP	47	240	5
TAP	47	264	5
TAP	47	312	3
STR	47	360	2
SXL	47	360	2	96	72	6
HLD	48	48	2	144
TAP	48	192	5
TAP	48	216	4
HLD	48	264	2	48
STR	48	264	6
SCR	48	264	6	96	72	2
HLD	48	312	4	120
TAP	48	360	6
TAP	49	96	1
TAP	49	96	3
TAP	49	144	4
TAP	49	144	6
HLD	49	192	2	72
TAP	49	192	3
TAP	49	240	0
HLD	49	264	0	48
TAP	49	312	1
TAP	49	336	0
TAP	49	360	3
TAP	50	24	4
TAP	50	48	0
HLD	50	48	4	96
TAP	50	96	6
TAP	50	144	2
TAP	50	192	3
TAP	50	216	4
TAP	50	240	3
HLD	50	264	6	48
HLD	50	312	4	48
TAP	50	360	2
TAP	51	24	3
TAP	51	48	3
TAP	51	48	4
TAP	51	96	4
TAP	51	96	5
TAP	51	144	6
TAP	51	168	7
HLD	51	192	0	168
TAP	51	192	5
TAP	51	240	2
TAP	51	264	2
TAP	51	312	4
STR	51	360	6
SCL	51	360	6	96	24	3
TAP	52	48	6
TAP	52	48	7
TAP	52	96	0
TAP	52	120	0
TAP	52	168	2
TAP	52	168	7
TAP	52	192	2
TAP	52	192	7
TAP	52	240	3
TAP	52	264	4
TAP	52	288	2
TAP	52	312	1
TAP	52	312	4
BRK	52	360	3
BRK	52	360	7
TAP	53	96	2
TAP	53	120	3
TAP	53	144	2
TAP	53	168	1
TAP	53	168	4
TAP	53	216	5
TAP	53	240	4
HLD	53	264	5	96
TAP	53	312	7
TAP	53	360	3
TAP	54	24	2
TAP	54	48	0
TAP	54	48	1
TAP	54	96	4
TAP	54	96	5
TAP	54	144	3
TAP	54	168	3
TAP	54	192	5
TAP	54	216	4
TAP	54	240	5
HLD	54	264	2	48
HLD	54	312	1	48
HLD	54	360	0	48
TAP	55	24	7
TAP	55	48	1
TAP	55	48	6
TAP	55	96	2
TAP	55	96	4
TAP	55	144	3
TAP	55	168	4
HLD	55	192	2	168
TAP	55	240	1
TAP	55	264	1
TAP	55	312	7
STR	55	360	5
SXL	55	360	5	96	72	1
HLD	56	48	5	96
TAP	56	192	0
TAP	56	192	5
TAP	56	216	0
TAP	56	216	5
STR	56	264	4
SI_	56	264	4	96	48	0
STR	56	264	6
SCL	56	264	6	96	48	2
TAP	56	312	1
TAP	56	312	3
TAP	56	360	4
TAP	56	360	6
TAP	57	96	1
TAP	57	120	3
TAP	57	144	2
TAP	57	168	0
TAP	57	168	1
TAP	57	216	5
TAP	57	240	4
TAP	57	264	5
HLD	57	312	3	144
TAP	57	312	6
BRK	57	360	1
BRK	58	24	4
BRK	58	72	7
TAP	58	120	2
TAP	58	144	3
TAP	58	168	1
TAP	58	192	5
TAP	58	216	4
TAP	58	240	4
STR	58	264	7
SCL	58	264	7	96	48	3
TAP	58	312	0
TAP	58	312	1
TAP	58	360	2
TAP	58	360	7
TAP	59	24	1
TAP	59	48	1
TAP	59	96	7
TAP	59	120	0
TAP	59	144	7
TAP	59	168	0
HLD	59	192	4	168
TAP	59	240	5
TAP	59	264	5
TAP	59	312	3
STR	59	360	0
SCL	59	360	0	96	24	5
TAP	60	48	0
TAP	60	48	1
TAP	60	96	1
TAP	60	120	4
TAP	60	144	1
TAP	60	168	3
TAP	60	192	1
TAP	60	216	2
TAP	60	240	1
TAP	60	264	0
TAP	60	288	1
TAP	60	312	7
TAP	60	336	1
TAP	60	360	6
TAP	61	0	1
TAP	61	0	5
TAP	61	48	0
TAP	61	48	4
TAP	61	96	2
TAP	61	96	3
TAP	61	144	0
TAP	61	144	5
HLD	61	192	3	168
TAP	61	240	2
TAP	61	264	2
TAP	61	312	4
STR	61	360	7
SCR	61	360	7	96	24	2
TAP	62	48	6
TAP	62	48	7
TAP	62	96	6
TAP	62	120	3
TAP	62	144	6
TAP	62	168	4
TAP	62	192	6
TAP	62	216	5
TAP	62	240	6
TAP	62	264	7
TAP	62	288	6
TAP	62	312	0
TAP	62	336	6
TAP	62	360	1
TAP	63	0	2
TAP	63	0	6
TAP	63	48	3
TAP	63	48	7
TAP	63	96	6
TAP	63	120	6
TAP	63	144	0
HLD	63	168	0	264
STR	63	360	7
SI_	63	360	7	96	24	2

T_REC_TAP	558
T_REC_BRK	13
T_REC_XTP	0
T_REC_HLD	87
T_REC_XHO	0
T_REC_STR	37
T_REC_BST	0
T_REC_XST	0
T_REC_TTP	0
T_REC_THO	0
T_REC_SLD	37
T_REC_ALL	732
T_NUM_TAP	595
T_NUM_BRK	13
T_NUM_HLD	87
T_NUM_SLD	37
T_NUM_ALL	732
T_JUDGE_TAP	608
T_JUDGE_HLD	200
T_JUDGE_SLD	37
T_JUDGE_ALL	845
TTM_EACHPAIRS	133
TTM_SCR_TAP	297500
TTM_SCR_BRK	33800
TTM_SCR_HLD	87000
TTM_SCR_SLD	55500
TTM_SCR_ALL	473800
TTM_SCR_S	458350
TTM_SCR_SS	472500
TTM_RAT_ACV	10027

