VERSION	0.00.00	1.03.00
FES_MODE	0
BPM_DEF	127.000	127.000	127.000	127.000
MET_DEF	4	4
RESOLUTION	384
CLK_DEF	384
COMPATIBLE_CODE	MA2

BPM	0	0	127.000
MET	0	0	4	4

HLD	1	0	1	96
HLD	1	96	3	96
HLD	1	192	5	96
TAP	1	288	7
TAP	2	0	0
TAP	2	0	2
TAP	2	96	5
TAP	2	96	7
TAP	2	192	1
TAP	2	192	3
TAP	2	288	4
TAP	2	288	6
TAP	3	0	1
TAP	3	48	7
TAP	3	96	3
TAP	3	144	5
TAP	3	192	0
TAP	3	240	4
TAP	3	288	2
TAP	3	336	6
STR	4	0	0
SI_	4	0	0	96	48	5
STR	4	96	7
SI_	4	96	7	96	48	2
STR	4	192	1
SI_	4	192	1	96	48	4
BRK	4	288	6
HLD	5	0	2	96
TAP	5	0	3
TAP	5	96	0
TAP	5	192	4
HLD	5	192	5	96
TAP	5	288	7
HLD	6	0	2	96
TAP	6	0	3
TAP	6	96	6
TAP	6	192	4
HLD	6	192	5	96
TAP	6	288	1
TAP	7	0	0
HLD	7	0	1	96
TAP	7	96	3
STR	7	192	6
SI_	7	192	6	96	48	4
STR	7	288	0
SI_	7	288	0	96	48	2
STR	8	0	7
SI_	8	0	7	96	48	3
TAP	8	192	3
TAP	8	192	4
TAP	8	288	1
TAP	8	288	6
TAP	9	0	4
HLD	9	0	5	96
TAP	9	96	7
HLD	9	192	2	96
TAP	9	192	3
TAP	9	288	0
TAP	10	0	4
HLD	10	0	5	96
TAP	10	96	0
HLD	10	192	2	96
TAP	10	192	3
TAP	10	288	7
HLD	11	0	6	96
TAP	11	0	7
TAP	11	96	4
STR	11	192	1
SI_	11	192	1	96	48	3
STR	11	288	7
SI_	11	288	7	96	48	5
STR	12	0	0
SI_	12	0	0	96	48	4
TAP	12	192	3
TAP	12	192	4
BRK	12	288	1
BRK	12	288	6
HLD	13	0	4	192
TAP	13	96	6
HLD	13	192	3	192
TAP	13	288	1
HLD	14	0	6	192
TAP	14	96	5
TAP	14	192	2
TAP	14	288	3
TAP	14	288	4
HLD	15	0	3	192
TAP	15	96	1
HLD	15	192	4	192
TAP	15	288	6
HLD	16	0	1	192
TAP	16	96	2
TAP	16	192	5
TAP	16	288	3
TAP	16	288	6
HLD	17	0	7	192
TAP	17	96	5
HLD	17	192	0	192
TAP	17	288	2
HLD	18	0	5	192
TAP	18	96	4
TAP	18	192	1
TAP	18	288	2
TAP	18	288	7
HLD	19	0	0	192
TAP	19	96	2
HLD	19	192	7	192
TAP	19	288	5
HLD	20	0	2	192
TAP	20	96	3
TAP	20	192	6
BRK	20	288	0
BRK	20	288	5
TAP	21	96	2
TAP	21	144	3
TAP	21	192	4
TAP	21	288	6
TAP	21	288	7
HLD	22	0	5	96
HLD	22	96	4	96
TAP	22	192	3
TAP	22	288	0
TAP	22	288	2
TAP	23	0	3
TAP	23	96	5
TAP	23	144	4
TAP	23	192	3
TAP	23	288	0
TAP	23	288	1
HLD	24	0	2	96
HLD	24	96	3	96
TAP	24	192	4
TAP	24	288	5
TAP	24	288	7
TAP	25	0	4
HLD	25	96	3	96
TAP	25	192	4
TAP	25	288	2
TAP	25	288	5
TAP	26	0	1
TAP	26	0	6
TAP	26	96	1
TAP	26	96	6
TAP	26	192	0
TAP	26	192	7
STR	26	288	1
SCL	26	288	1	96	48	7
STR	26	288	4
SCR	26	288	4	96	48	6
STR	27	96	3
SCL	27	96	3	96	48	1
STR	27	96	6
SCR	27	96	6	96	48	0
STR	27	288	0
SCR	27	288	0	96	96	3
STR	27	288	7
SCL	27	288	7	96	96	4
TAP	28	192	0
TAP	28	192	1
TAP	28	288	6
TAP	28	288	7
TAP	29	0	0
TAP	29	0	1
TAP	29	96	2
TAP	29	96	3
TAP	29	192	4
TAP	29	288	6
STR	29	288	7
SV_	29	288	7	96	96	2
TAP	30	0	5
TAP	30	96	4
TAP	30	192	3
STR	30	288	0
SI_	30	288	0	96	48	6
TAP	30	288	2
TAP	31	96	4
TAP	31	192	3
STR	31	288	0
SV_	31	288	0	96	96	5
TAP	31	288	1
TAP	32	0	2
TAP	32	96	3
TAP	32	192	4
TAP	32	288	5
STR	32	288	7
SI_	32	288	7	96	48	1
HLD	33	96	4	96
TAP	33	192	3
TAP	33	240	2
TAP	33	288	1
TAP	34	0	4
TAP	34	48	5
TAP	34	96	6
TAP	34	192	0
TAP	34	192	7
TAP	34	288	7
TAP	34	336	0
TAP	35	0	6
TAP	35	48	1
TAP	35	96	5
STR	35	192	1
SI_	35	192	1	96	96	6
STR	35	192	2
SI_	35	192	2	96	96	5
TAP	36	96	0
TAP	36	96	7
TAP	36	192	1
TAP	36	192	6
BRK	36	240	1
BRK	36	240	6
TAP	37	0	5
HLD	37	48	5	48
HLD	37	144	2	48
HLD	37	144	3	48
HLD	37	240	4	48
HLD	37	240	5	48
HLD	37	336	2	48
HLD	37	336	3	48
HLD	38	48	4	48
HLD	38	48	5	48
HLD	38	144	2	48
HLD	38	144	3	48
HLD	38	240	4	48
HLD	38	240	5	48
HLD	38	336	2	48
HLD	38	336	3	48
HLD	39	48	3	48
HLD	39	48	5	48
HLD	39	144	2	48
HLD	39	144	4	48
HLD	39	240	3	48
HLD	39	240	5	48
TAP	39	336	2
TAP	39	336	4
BRK	40	0	3
BRK	40	96	6
BRK	40	192	2
BRK	40	192	7
BRK	40	288	0
BRK	40	288	5
TAP	41	0	2
HLD	41	48	2	48
HLD	41	144	3	48
HLD	41	144	5	48
HLD	41	240	2	48
HLD	41	240	4	48
HLD	41	336	3	48
HLD	41	336	5	48
HLD	42	48	2	48
HLD	42	48	7	48
HLD	42	144	0	48
HLD	42	144	5	48
HLD	42	240	2	48
HLD	42	240	7	48
TAP	42	336	0
TAP	42	336	5
TAP	43	0	1
TAP	43	48	6
TAP	43	96	2
TAP	43	144	4
TAP	43	192	1
TAP	43	192	5
TAP	43	288	2
TAP	43	288	6
BRK	44	0	1
BRK	44	0	6
TAP	44	192	3
TAP	44	240	4
TAP	44	288	2
TAP	44	288	5
TAP	45	96	6
TAP	45	96	7
TAP	45	144	1
TAP	45	192	1
TAP	45	240	6
TAP	45	264	7
TAP	45	312	7
TAP	45	360	0
TAP	45	360	5
TAP	46	48	0
TAP	46	48	5
TAP	46	192	1
TAP	46	240	1
TAP	46	264	0
TAP	46	312	0
TAP	46	360	2
TAP	46	360	7
TAP	47	48	2
TAP	47	48	7
STR	47	192	0
SI_	47	192	0	96	48	5
STR	47	288	4
SI_	47	288	4	96	48	1
STR	48	0	0
SI_	48	0	0	96	48	5
STR	48	96	4
SI_	48	96	4	96	48	1
TAP	48	192	0
TAP	48	288	0
TAP	48	288	7
TAP	49	96	0
TAP	49	96	1
TAP	49	144	6
TAP	49	192	6
TAP	49	240	1
TAP	49	264	0
TAP	49	312	0
TAP	49	360	2
TAP	49	360	7
TAP	50	48	2
TAP	50	48	7
TAP	50	192	6
TAP	50	240	6
TAP	50	264	7
TAP	50	312	7
TAP	50	360	0
TAP	50	360	5
TAP	51	48	0
TAP	51	48	5
STR	51	192	7
SI_	51	192	7	96	48	2
STR	51	288	3
SI_	51	288	3	96	48	6
STR	52	0	7
SI_	52	0	7	96	48	2
STR	52	96	3
SI_	52	96	3	96	48	6
TAP	52	192	7
TAP	52	288	0
TAP	52	288	7
TAP	53	96	4
TAP	53	96	5
TAP	53	144	2
TAP	53	192	2
TAP	53	240	5
TAP	53	264	4
TAP	53	312	4
TAP	53	360	3
TAP	53	360	6
TAP	54	48	3
TAP	54	48	6
TAP	54	192	2
TAP	54	240	2
TAP	54	264	3
TAP	54	312	3
TAP	54	360	1
TAP	54	360	4
TAP	55	48	1
TAP	55	48	4
STR	55	192	1
SI_	55	192	1	96	48	3
STR	55	288	6
SI_	55	288	6	96	48	4
STR	56	0	0
SI_	56	0	0	96	48	2
STR	56	96	7
SI_	56	96	7	96	48	5
STR	56	192	0
SI_	56	192	0	96	48	4
STR	56	288	7
SI_	56	288	7	96	48	3
TAP	57	96	2
TAP	57	96	3
TAP	57	144	5
TAP	57	192	5
TAP	57	240	2
TAP	57	264	3
TAP	57	312	3
TAP	57	360	2
TAP	57	360	4
TAP	58	24	2
TAP	58	24	4
TAP	58	72	1
TAP	58	72	5
TAP	58	192	5
TAP	58	240	5
TAP	58	264	4
TAP	58	312	4
TAP	58	360	3
TAP	58	360	6
TAP	59	48	3
TAP	59	48	6
STR	59	192	2
SI_	59	192	2	96	48	0
STR	59	288	5
SI_	59	288	5	96	48	7
STR	60	0	3
SV_	60	0	3	96	72	1
STR	60	96	4
SV_	60	96	4	96	72	6
STR	60	192	3
SI_	60	192	3	96	48	0
TAP	61	0	6
TAP	61	0	7
TAP	61	48	1
TAP	61	48	4
TAP	61	192	2
TAP	61	240	2
TAP	61	264	3
TAP	61	312	3
TAP	61	360	6
TAP	61	360	7
TAP	62	48	1
TAP	62	48	4
TAP	62	192	0
TAP	62	192	7
TAP	62	288	2
TAP	62	288	5
TAP	63	0	0
TAP	63	0	1
TAP	63	48	3
TAP	63	48	6
TAP	63	192	5
TAP	63	240	5
TAP	63	264	4
TAP	63	312	4
TAP	63	360	0
TAP	63	360	1
BRK	64	48	3
BRK	64	48	6

T_REC_TAP	258
T_REC_BRK	17
T_REC_XTP	0
T_REC_HLD	65
T_REC_XHO	0
T_REC_STR	40
T_REC_BST	0
T_REC_XST	0
T_REC_TTP	0
T_REC_THO	0
T_REC_SLD	40
T_REC_ALL	420
T_NUM_TAP	298
T_NUM_BRK	17
T_NUM_HLD	65
T_NUM_SLD	40
T_NUM_ALL	420
T_JUDGE_TAP	315
T_JUDGE_HLD	120
T_JUDGE_SLD	40
T_JUDGE_ALL	475
TTM_EACHPAIRS	103
TTM_SCR_TAP	149000
TTM_SCR_BRK	44200
TTM_SCR_HLD	65000
TTM_SCR_SLD	60000
TTM_SCR_ALL	318200
TTM_SCR_S	307050
TTM_SCR_SS	316500
TTM_RAT_ACV	10053

