VERSION	0.00.00	1.03.00
FES_MODE	0
BPM_DEF	127.000	127.000	127.000	127.000
MET_DEF	4	4
RESOLUTION	384
CLK_DEF	384
COMPATIBLE_CODE	MA2

BPM	0	0	127.000
MET	0	0	4	4

HLD	1	0	2	192
HLD	1	192	5	192
HLD	2	0	3	192
HLD	2	192	4	192
STR	3	0	2
SCL	3	0	2	96	192	5
TAP	4	0	0
TAP	4	0	7
TAP	5	0	2
TAP	5	96	2
TAP	5	96	3
TAP	5	192	5
TAP	5	288	4
TAP	5	288	5
TAP	6	0	1
TAP	6	96	1
TAP	6	96	3
TAP	6	192	6
TAP	6	288	4
TAP	6	288	6
TAP	7	0	1
TAP	7	96	0
TAP	7	96	1
TAP	7	192	6
TAP	7	288	6
TAP	7	288	7
TAP	8	0	0
TAP	8	0	1
TAP	8	96	6
TAP	8	96	7
TAP	8	192	0
TAP	8	192	7
TAP	8	288	1
TAP	8	288	6
TAP	9	96	1
TAP	9	96	3
TAP	9	192	4
TAP	9	288	3
TAP	9	288	5
TAP	10	0	6
TAP	10	96	5
TAP	10	96	7
TAP	10	192	0
TAP	10	288	1
TAP	10	288	7
TAP	11	0	2
TAP	11	96	1
TAP	11	96	3
TAP	11	192	5
TAP	11	288	4
TAP	11	288	6
TAP	12	0	0
TAP	12	0	1
TAP	12	96	6
TAP	12	96	7
TAP	12	192	0
TAP	12	192	7
TAP	12	288	1
TAP	12	288	6
HLD	13	0	7	192
HLD	13	192	6	192
HLD	14	0	5	192
TAP	14	192	4
HLD	15	0	0	192
HLD	15	192	1	192
HLD	16	0	2	192
TAP	16	192	3
TAP	16	288	3
HLD	17	0	1	192
HLD	17	192	0	192
HLD	18	0	7	192
TAP	18	192	6
HLD	19	0	6	192
HLD	19	192	7	192
HLD	20	0	0	192
TAP	20	192	1
HLD	21	0	3	96
TAP	21	96	4
TAP	21	192	2
TAP	21	240	3
TAP	21	288	2
HLD	22	0	4	96
TAP	22	96	3
TAP	22	192	5
TAP	22	240	4
TAP	22	288	5
HLD	23	0	2	96
TAP	23	96	3
TAP	23	192	1
TAP	23	240	4
TAP	23	288	1
HLD	24	0	5	96
TAP	24	96	4
TAP	24	192	6
TAP	24	240	3
TAP	24	288	6
HLD	25	0	0	96
TAP	25	96	7
TAP	25	192	1
TAP	25	240	0
TAP	25	288	1
HLD	26	0	7	96
TAP	26	96	0
TAP	26	192	6
TAP	26	240	7
TAP	26	288	6
TAP	27	0	5
TAP	27	48	4
TAP	27	96	3
TAP	27	192	2
TAP	27	240	3
TAP	27	288	4
TAP	28	0	6
TAP	28	48	5
TAP	28	96	4
TAP	28	192	2
TAP	28	192	3
TAP	28	288	2
TAP	28	288	3
HLD	29	0	5	96
TAP	29	96	4
TAP	29	192	6
TAP	29	240	3
TAP	29	288	6
HLD	30	0	2	96
TAP	30	96	3
TAP	30	192	1
TAP	30	240	4
TAP	30	288	1
HLD	31	0	7	96
TAP	31	96	0
TAP	31	192	6
TAP	31	240	7
TAP	31	288	6
HLD	32	0	0	96
TAP	32	96	7
TAP	32	192	1
TAP	32	240	0
TAP	32	288	1
TAP	33	0	2
TAP	33	0	7
TAP	33	96	6
TAP	33	144	6
TAP	33	192	3
TAP	33	240	3
TAP	33	288	5
TAP	33	336	5
TAP	34	48	2
TAP	34	48	3
TAP	34	144	4
TAP	34	144	5
TAP	34	288	0
TAP	34	288	7
TAP	35	0	1
TAP	35	48	2
TAP	35	96	3
TAP	35	192	6
TAP	35	240	5
TAP	35	288	4
TAP	36	0	3
TAP	36	0	4
TAP	36	96	2
TAP	36	96	5
TAP	36	192	1
TAP	36	192	6
BRK	36	240	1
BRK	36	240	6
STR	37	0	0
SI_	37	0	0	96	96	3
STR	37	192	7
SI_	37	192	7	96	96	4
STR	38	0	0
SCR	38	0	0	96	96	3
STR	38	192	7
SCL	38	192	7	96	96	4
STR	39	0	0
SUR	39	0	0	96	192	3
TAP	40	0	4
TAP	40	0	6
TAP	40	96	3
TAP	40	96	5
TAP	40	192	2
TAP	40	192	4
TAP	40	288	1
TAP	40	288	3
STR	41	0	7
SI_	41	0	7	96	96	4
STR	41	192	0
SI_	41	192	0	96	96	3
STR	42	0	7
SCL	42	0	7	96	96	4
TAP	42	192	0
TAP	42	288	0
TAP	42	288	7
TAP	43	0	1
TAP	43	48	2
TAP	43	96	3
TAP	43	144	4
TAP	43	192	3
TAP	43	192	5
TAP	43	288	2
TAP	43	288	4
TAP	44	0	0
TAP	44	0	7
TAP	45	0	1
TAP	45	96	2
TAP	45	96	3
TAP	45	192	4
TAP	45	240	3
TAP	45	288	2
TAP	46	0	5
TAP	46	48	4
TAP	46	96	3
TAP	46	192	6
TAP	46	240	5
TAP	46	288	4
TAP	47	0	7
TAP	47	48	6
TAP	47	96	5
TAP	47	192	0
TAP	47	192	1
TAP	47	288	2
TAP	47	288	3
TAP	48	0	4
TAP	48	0	5
TAP	48	96	6
TAP	48	96	7
TAP	48	192	0
TAP	48	240	0
TAP	48	288	7
TAP	49	0	6
TAP	49	0	7
TAP	49	96	4
TAP	49	96	5
TAP	49	192	3
TAP	49	240	4
TAP	49	288	5
TAP	50	0	2
TAP	50	48	3
TAP	50	96	4
TAP	50	192	1
TAP	50	240	2
TAP	50	288	3
TAP	51	0	0
TAP	51	48	1
TAP	51	96	2
TAP	51	192	6
TAP	51	192	7
TAP	51	288	4
TAP	51	288	5
TAP	52	0	2
TAP	52	0	3
TAP	52	96	0
TAP	52	96	1
TAP	52	192	7
TAP	52	240	7
TAP	52	288	0
TAP	53	0	0
TAP	53	0	1
TAP	53	96	2
TAP	53	96	3
TAP	53	192	5
TAP	53	240	4
TAP	53	288	6
TAP	54	0	2
TAP	54	48	3
TAP	54	96	1
TAP	54	192	5
TAP	54	240	4
TAP	54	288	7
TAP	55	0	2
TAP	55	48	3
TAP	55	96	0
TAP	55	192	6
TAP	55	192	7
TAP	55	288	4
TAP	55	288	5
TAP	56	0	2
TAP	56	0	3
TAP	56	96	0
TAP	56	96	1
TAP	56	192	7
TAP	56	240	0
TAP	56	288	7
TAP	57	0	4
TAP	57	0	5
TAP	57	96	4
TAP	57	96	5
TAP	57	192	2
TAP	57	240	3
TAP	57	288	1
TAP	57	288	4
TAP	58	0	5
TAP	58	48	4
TAP	58	96	3
TAP	58	96	6
TAP	58	192	2
TAP	58	240	3
TAP	58	288	1
TAP	58	288	4
TAP	59	0	5
TAP	59	48	4
TAP	59	96	3
TAP	59	96	6
TAP	59	192	0
TAP	59	192	1
TAP	59	288	2
TAP	59	288	3
TAP	60	0	4
TAP	60	0	5
TAP	60	96	6
TAP	60	96	7
TAP	60	192	0
TAP	60	240	1
TAP	60	288	2
TAP	61	0	4
TAP	61	0	5
TAP	61	48	4
TAP	61	48	5
TAP	61	192	6
TAP	61	192	7
TAP	61	288	4
TAP	61	288	5
TAP	62	0	2
TAP	62	0	3
TAP	62	96	0
TAP	62	96	1
TAP	62	192	7
TAP	62	240	6
TAP	62	288	5
TAP	63	0	2
TAP	63	0	3
TAP	63	48	2
TAP	63	48	3
STR	63	192	1
SUR	63	192	1	96	288	4

T_REC_TAP	288
T_REC_BRK	2
T_REC_XTP	0
T_REC_HLD	26
T_REC_XHO	0
T_REC_STR	10
T_REC_BST	0
T_REC_XST	0
T_REC_TTP	0
T_REC_THO	0
T_REC_SLD	10
T_REC_ALL	336
T_NUM_TAP	298
T_NUM_BRK	2
T_NUM_HLD	26
T_NUM_SLD	10
T_NUM_ALL	336
T_JUDGE_TAP	300
T_JUDGE_HLD	84
T_JUDGE_SLD	10
T_JUDGE_ALL	394
TTM_EACHPAIRS	74
TTM_SCR_TAP	149000
TTM_SCR_BRK	5200
TTM_SCR_HLD	26000
TTM_SCR_SLD	15000
TTM_SCR_ALL	195200
TTM_SCR_S	189150
TTM_SCR_SS	195000
TTM_RAT_ACV	10010

