VERSION	0.00.00	1.03.00
FES_MODE	0
BPM_DEF	127.000	127.000	127.000	127.000
MET_DEF	4	4
RESOLUTION	384
CLK_DEF	384
COMPATIBLE_CODE	MA2

BPM	0	0	127.000
MET	0	0	4	4

TAP	5	0	3
TAP	5	192	3
TAP	6	0	2
TAP	6	0	3
TAP	7	0	5
TAP	7	192	5
TAP	8	0	4
TAP	8	0	5
TAP	9	0	7
TAP	9	192	7
TAP	10	0	6
TAP	10	0	7
TAP	11	0	1
TAP	11	192	1
TAP	12	0	0
TAP	12	0	1
HLD	13	0	0	192
HLD	14	0	6	192
HLD	15	0	4	192
HLD	16	0	2	192
HLD	17	0	1	192
HLD	18	0	3	192
HLD	19	0	5	192
HLD	20	0	7	192
TAP	21	192	6
TAP	22	0	6
TAP	22	192	6
TAP	22	288	6
TAP	23	192	6
TAP	24	0	7
TAP	24	192	7
TAP	24	288	7
TAP	25	192	6
TAP	26	0	7
TAP	26	192	0
TAP	26	288	0
TAP	27	192	1
TAP	27	288	1
TAP	28	0	1
TAP	29	192	2
TAP	30	0	2
TAP	30	192	2
TAP	30	288	2
TAP	31	192	2
TAP	32	0	3
TAP	32	192	3
TAP	32	288	3
TAP	33	192	2
TAP	34	0	3
TAP	34	192	4
TAP	34	288	4
TAP	35	192	5
TAP	35	288	5
TAP	36	0	5
TAP	37	0	6
TAP	37	96	6
TAP	37	192	6
TAP	38	0	5
TAP	38	96	5
TAP	38	192	5
TAP	39	0	6
TAP	39	96	6
TAP	39	192	6
TAP	39	192	7
BRK	40	0	7
BRK	40	192	0
TAP	41	0	1
TAP	41	96	1
TAP	41	192	1
TAP	42	0	2
TAP	42	96	2
TAP	42	192	2
TAP	43	0	1
TAP	43	96	1
TAP	43	192	0
TAP	43	192	1
BRK	44	0	0
BRK	44	0	7
TAP	45	0	4
TAP	45	0	5
TAP	45	192	4
TAP	45	192	5
TAP	46	0	6
TAP	46	96	6
TAP	47	0	7
TAP	47	96	7
STR	47	192	7
SI_	47	192	7	96	288	4
TAP	49	0	2
TAP	49	0	3
TAP	49	192	2
TAP	49	192	3
TAP	50	0	1
TAP	50	96	1
TAP	51	0	0
TAP	51	96	0
STR	51	192	0
SI_	51	192	0	96	288	3
TAP	53	0	2
TAP	53	0	5
TAP	53	192	1
TAP	53	192	6
TAP	54	0	5
TAP	54	96	5
TAP	54	192	4
TAP	55	0	2
TAP	55	96	2
STR	55	192	3
SI_	55	192	3	96	288	0
TAP	57	0	1
TAP	57	0	6
TAP	57	192	1
TAP	57	192	6
TAP	58	0	2
TAP	58	96	2
TAP	58	192	3
TAP	59	0	5
TAP	59	96	5
STR	59	192	4
SI_	59	192	4	96	288	7
TAP	61	0	1
TAP	61	0	6
STR	61	192	0
SI_	61	192	0	96	288	3
STR	61	192	7
SI_	61	192	7	96	288	4
TAP	63	0	2
TAP	63	0	5
TAP	63	192	0
TAP	63	192	7
TAP	63	288	0
TAP	63	288	7
BRK	64	0	0
BRK	64	0	7

T_REC_TAP	108
T_REC_BRK	6
T_REC_XTP	0
T_REC_HLD	8
T_REC_XHO	0
T_REC_STR	6
T_REC_BST	0
T_REC_XST	0
T_REC_TTP	0
T_REC_THO	0
T_REC_SLD	6
T_REC_ALL	134
T_NUM_TAP	114
T_NUM_BRK	6
T_NUM_HLD	8
T_NUM_SLD	6
T_NUM_ALL	134
T_JUDGE_TAP	120
T_JUDGE_HLD	32
T_JUDGE_SLD	6
T_JUDGE_ALL	158
TTM_EACHPAIRS	21
TTM_SCR_TAP	57000
TTM_SCR_BRK	15600
TTM_SCR_HLD	8000
TTM_SCR_SLD	9000
TTM_SCR_ALL	89600
TTM_SCR_S	86350
TTM_SCR_SS	89000
TTM_RAT_ACV	10067

