VERSION	0.00.00	1.03.00
FES_MODE	0
BPM_DEF	256.000	252.000	256.000	106.000
MET_DEF	4	4
RESOLUTION	384
CLK_DEF	276
COMPATIBLE_CODE	MA2

BPM	0	0	256.000
BPM	39	0	220.000
BPM	39	96	200.000
BPM	39	192	177.000
BPM	39	288	158.000
BPM	40	0	139.000
BPM	40	96	106.000
BPM	40	192	252.000
MET	0	0	4	6
MET	46	192	4	8
MET	70	192	4	7
MET	74	0	4	6
MET	77	0	4	8
MET	85	0	4	7
MET	88	192	4	8
MET	94	192	4	4

TAP	1	192	0
TAP	1	192	1
TAP	1	288	4
STR	1	288	5
SCR	1	288	5	96	48	7
TAP	2	96	0
TAP	2	96	1
TAP	2	192	2
TAP	2	192	3
TAP	2	288	4
TAP	2	288	5
TAP	3	0	6
TAP	3	0	7
STR	3	96	2
SCL	3	96	2	96	48	0
TAP	3	96	3
TAP	3	288	6
TAP	3	288	7
TAP	4	0	4
TAP	4	0	5
TAP	4	96	2
TAP	4	96	3
TAP	4	192	0
TAP	4	192	1
TAP	4	288	4
STR	4	288	5
SCR	4	288	5	96	48	7
TAP	5	96	0
TAP	5	96	1
TAP	5	192	2
TAP	5	192	3
TAP	5	288	4
TAP	5	288	5
TAP	6	0	6
TAP	6	0	7
STR	6	96	2
SCL	6	96	2	96	48	0
TAP	6	96	3
TAP	6	288	7
TAP	6	336	6
TAP	7	0	5
TAP	7	48	4
TAP	7	96	3
TAP	7	192	0
TAP	7	192	1
TAP	7	288	4
STR	7	288	5
SCR	7	288	5	96	48	7
TAP	8	96	0
TAP	8	96	1
TAP	8	192	2
TAP	8	192	3
TAP	8	288	4
TAP	8	288	5
TAP	9	0	6
TAP	9	0	7
STR	9	96	2
SCL	9	96	2	96	48	0
TAP	9	96	3
TAP	9	288	6
TAP	9	288	7
TAP	10	0	4
TAP	10	0	5
TAP	10	96	2
TAP	10	96	3
TAP	10	192	0
TAP	10	192	1
TAP	10	288	4
STR	10	288	5
SCR	10	288	5	96	48	7
TAP	11	96	0
TAP	11	96	1
TAP	11	192	2
TAP	11	192	3
TAP	11	288	4
TAP	11	288	5
TAP	12	0	6
TAP	12	0	7
STR	12	96	2
SCL	12	96	2	96	48	0
TAP	12	96	3
TAP	12	288	7
TAP	12	336	6
TAP	13	0	5
TAP	13	48	4
TAP	13	96	3
STR	13	192	0
SCR	13	192	0	96	96	3
STR	13	288	3
SCR	13	288	3	96	96	6
TAP	14	0	6
HLD	14	96	0	96
HLD	14	192	2	96
HLD	14	288	4	96
STR	15	0	7
SCL	15	0	7	96	96	4
STR	15	96	4
SCL	15	96	4	96	96	1
TAP	15	192	1
HLD	15	288	7	96
HLD	16	0	5	96
HLD	16	96	3	96
STR	16	192	0
SCR	16	192	0	96	96	3
STR	16	288	3
SCR	16	288	3	96	96	6
TAP	17	0	6
HLD	17	96	0	96
HLD	17	192	2	96
HLD	17	288	4	96
STR	18	0	7
SCL	18	0	7	96	96	4
STR	18	96	4
SCL	18	96	4	96	96	1
STR	18	192	1
SUR	18	192	1	96	192	4
STR	19	192	0
SCR	19	192	0	96	96	3
STR	19	288	3
SCR	19	288	3	96	96	6
TAP	20	0	6
HLD	20	96	0	96
HLD	20	192	2	96
HLD	20	288	4	96
STR	21	0	7
SCL	21	0	7	96	96	4
STR	21	96	4
SCL	21	96	4	96	96	1
TAP	21	192	1
HLD	21	288	7	96
HLD	22	0	5	96
HLD	22	96	3	96
STR	22	192	0
SCR	22	192	0	96	96	3
STR	22	288	3
SCR	22	288	3	96	96	6
TAP	23	0	6
HLD	23	96	0	96
HLD	23	192	2	96
HLD	23	288	4	96
TAP	24	0	7
TAP	24	96	0
TAP	24	96	6
TAP	24	192	1
TAP	24	192	5
TAP	24	288	2
TAP	24	288	4
TAP	25	0	1
TAP	25	0	5
TAP	25	96	0
TAP	25	96	6
BRK	25	192	7
TAP	25	288	1
TAP	25	336	0
HLD	26	0	1	672
TAP	26	96	2
TAP	26	192	3
TAP	26	288	4
TAP	27	0	5
TAP	27	96	6
TAP	27	192	7
STR	27	288	0
SI_	27	288	0	96	96	3
STR	28	0	3
SI_	28	0	3	96	96	6
TAP	28	192	0
TAP	28	288	6
TAP	28	336	7
TAP	29	0	6
TAP	29	96	3
TAP	29	144	4
TAP	29	192	2
TAP	29	240	3
TAP	29	288	1
TAP	29	336	2
STR	30	0	1
SI_	30	0	1	96	96	4
STR	30	144	6
SI_	30	144	6	96	96	3
STR	30	288	0
SI_	30	288	0	96	96	4
STR	31	48	7
SI_	31	48	7	96	96	3
STR	31	192	1
SI_	31	192	1	96	96	5
STR	31	336	0
SI_	31	336	0	96	96	4
STR	32	96	7
SI_	32	96	7	96	96	3
STR	32	240	6
SI_	32	240	6	96	48	2
TAP	33	0	0
TAP	33	48	4
TAP	33	96	1
TAP	33	144	4
TAP	33	192	2
TAP	33	240	4
TAP	33	288	1
TAP	33	336	4
TAP	34	0	2
TAP	34	48	4
TAP	34	96	3
TAP	34	144	4
HLD	34	192	0	96
HLD	34	288	1	96
HLD	35	0	2	96
STR	35	96	3
SI_	35	96	3	96	96	6
STR	35	192	6
SI_	35	192	6	96	96	1
STR	35	288	1
SI_	35	288	1	96	96	4
STR	36	0	4
SI_	36	0	4	96	96	7
TAP	36	336	0
TAP	36	336	1
TAP	37	48	2
TAP	37	48	3
TAP	37	144	4
TAP	37	144	5
TAP	37	192	6
HLD	37	192	7	576
TAP	37	288	5
TAP	38	0	4
TAP	38	96	3
TAP	38	192	2
TAP	38	288	1
TAP	39	0	0
TAP	39	96	1
TAP	39	96	7
TAP	39	192	2
TAP	39	192	6
TAP	39	288	3
TAP	39	288	5
HLD	40	1	4	95
TAP	40	96	0
BRK	40	192	2
TAP	40	240	4
TAP	40	288	3
TAP	40	336	4
TAP	41	0	3
TAP	41	48	4
TAP	41	96	5
TAP	41	144	4
TAP	41	192	3
TAP	41	240	4
TAP	41	288	3
TAP	41	336	4
TAP	42	0	1
TAP	42	48	4
TAP	42	96	3
TAP	42	144	4
TAP	42	192	3
TAP	42	240	4
TAP	42	288	6
TAP	42	336	4
TAP	43	0	3
TAP	43	48	4
TAP	43	96	3
TAP	43	144	4
STR	43	192	0
SI_	43	192	0	96	48	2
STR	43	288	7
SI_	43	288	7	96	48	5
STR	44	96	1
SI_	44	96	1	96	48	3
STR	44	192	6
SI_	44	192	6	96	48	4
TAP	45	0	0
TAP	45	48	7
TAP	45	96	1
TAP	45	144	6
TAP	45	192	2
TAP	45	240	5
TAP	45	288	1
TAP	45	336	6
TAP	46	0	0
TAP	46	48	7
BRK	46	96	0
TAP	46	192	4
TAP	46	240	4
STR	46	288	1
SI_	46	288	1	96	48	4
STR	47	0	6
SI_	47	0	6	96	48	3
STR	47	144	0
SI_	47	144	0	96	48	3
TAP	47	240	7
TAP	47	336	7
TAP	48	0	1
TAP	48	48	0
TAP	48	96	1
TAP	48	144	0
TAP	48	192	3
TAP	48	240	3
STR	48	288	6
SI_	48	288	6	96	48	3
STR	49	0	1
SI_	49	0	1	96	48	4
STR	49	144	7
SI_	49	144	7	96	48	4
TAP	49	240	0
TAP	49	336	0
TAP	50	0	6
TAP	50	48	7
TAP	50	96	6
TAP	50	144	7
TAP	50	192	4
TAP	50	240	4
STR	50	288	1
SI_	50	288	1	96	48	4
STR	51	0	6
SI_	51	0	6	96	48	3
STR	51	144	0
SI_	51	144	0	96	48	3
TAP	51	240	7
TAP	51	336	7
TAP	52	0	1
TAP	52	48	0
TAP	52	96	1
TAP	52	144	0
TAP	52	192	3
TAP	52	240	3
STR	52	288	6
SI_	52	288	6	96	48	3
STR	53	0	1
SI_	53	0	1	96	48	4
TAP	53	192	7
TAP	53	240	6
STR	53	288	5
SI_	53	288	5	96	48	1
TAP	53	336	4
STR	54	0	3
SI_	54	0	3	96	48	7
TAP	54	192	4
TAP	54	240	4
STR	54	288	1
SI_	54	288	1	96	48	4
STR	55	0	6
SI_	55	0	6	96	48	3
STR	55	144	0
SI_	55	144	0	96	48	3
TAP	55	240	7
TAP	55	336	7
TAP	56	0	1
TAP	56	48	0
TAP	56	96	1
TAP	56	144	0
TAP	56	192	3
TAP	56	240	3
STR	56	288	6
SI_	56	288	6	96	48	3
STR	57	0	1
SI_	57	0	1	96	48	4
STR	57	144	7
SI_	57	144	7	96	48	4
TAP	57	240	0
TAP	57	336	0
TAP	58	0	6
TAP	58	48	7
TAP	58	96	6
TAP	58	144	7
TAP	58	192	4
TAP	58	240	4
STR	58	288	1
SI_	58	288	1	96	48	4
STR	59	0	6
SI_	59	0	6	96	48	3
STR	59	144	0
SI_	59	144	0	96	48	3
TAP	59	240	7
TAP	59	336	7
TAP	60	0	1
TAP	60	48	0
TAP	60	96	1
TAP	60	144	0
TAP	60	192	3
TAP	60	240	3
STR	60	288	6
SV_	60	288	6	96	48	7
TAP	61	96	3
TAP	61	144	4
TAP	61	192	2
TAP	61	240	5
TAP	61	288	0
TAP	61	336	7
TAP	62	0	2
TAP	62	48	4
TAP	62	96	0
TAP	62	144	6
BRK	62	192	7
TAP	62	240	4
TAP	62	288	0
TAP	62	336	4
TAP	63	0	1
TAP	63	48	4
TAP	63	96	2
TAP	63	144	4
TAP	63	192	3
TAP	63	240	4
TAP	63	288	5
TAP	63	336	4
TAP	64	0	6
TAP	64	48	4
TAP	64	96	7
TAP	64	144	4
TAP	64	192	6
TAP	64	240	4
TAP	64	288	5
TAP	64	336	4
TAP	65	0	3
TAP	65	48	4
TAP	65	96	2
TAP	65	144	4
STR	65	192	1
SI_	65	192	1	96	48	5
TAP	65	288	1
STR	65	336	7
SI_	65	336	7	96	48	3
TAP	66	48	7
HLD	66	96	2	96
TAP	66	192	7
TAP	66	240	3
TAP	66	288	6
TAP	66	336	3
TAP	67	0	5
TAP	67	48	3
TAP	67	96	4
TAP	67	144	3
TAP	67	192	2
TAP	67	240	3
TAP	67	288	1
TAP	67	336	3
TAP	68	0	0
TAP	68	48	3
TAP	68	96	7
STR	68	144	3
SCL	68	144	3	96	48	1
STR	68	240	7
SCL	68	240	7	96	48	5
STR	69	0	2
SCL	69	0	2	96	48	0
STR	69	144	6
SCL	69	144	6	96	48	4
STR	69	288	1
SUR	69	288	1	96	96	4
TAP	70	192	7
TAP	70	240	0
TAP	70	288	7
TAP	70	336	1
TAP	71	0	7
TAP	71	48	2
TAP	71	96	7
TAP	71	144	3
TAP	71	192	7
TAP	71	240	4
TAP	71	288	7
TAP	71	336	5
HLD	72	0	7	96
TAP	72	96	0
TAP	72	144	7
TAP	72	192	0
TAP	72	240	6
TAP	72	288	0
TAP	72	336	5
TAP	73	0	0
TAP	73	48	4
TAP	73	96	0
TAP	73	144	3
TAP	73	192	0
TAP	73	240	2
HLD	73	288	0	96
TAP	74	0	5
TAP	74	48	4
TAP	74	96	6
TAP	74	144	2
TAP	74	192	3
TAP	74	240	1
TAP	74	288	5
TAP	74	336	4
TAP	75	0	6
TAP	75	48	2
TAP	75	96	3
TAP	75	144	1
TAP	75	192	7
TAP	75	240	0
TAP	75	288	6
TAP	75	336	1
TAP	76	0	5
TAP	76	48	2
TAP	76	96	4
TAP	76	144	4
TAP	76	192	4
TAP	76	240	3
TAP	76	288	3
TAP	76	336	3
TAP	77	0	0
TAP	77	48	3
TAP	77	96	7
TAP	77	144	3
TAP	77	192	6
TAP	77	240	3
TAP	77	288	5
TAP	77	336	3
TAP	78	0	4
TAP	78	48	3
TAP	78	96	2
TAP	78	144	3
TAP	78	192	1
TAP	78	240	3
TAP	78	288	0
TAP	78	336	3
TAP	79	0	1
TAP	79	48	3
TAP	79	96	2
TAP	79	144	3
TAP	79	192	4
TAP	79	240	3
TAP	79	288	5
TAP	79	336	3
STR	80	0	6
SI_	80	0	6	96	48	2
TAP	80	96	6
STR	80	144	0
SI_	80	144	0	96	48	4
TAP	80	240	0
HLD	80	288	5	96
TAP	81	0	0
TAP	81	48	4
TAP	81	96	1
TAP	81	144	4
TAP	81	192	2
TAP	81	240	4
TAP	81	288	3
TAP	81	336	4
TAP	82	0	5
TAP	82	48	4
TAP	82	96	6
TAP	82	144	4
TAP	82	192	7
TAP	82	240	4
TAP	82	288	0
STR	82	336	4
SCR	82	336	4	96	48	6
STR	83	48	0
SCR	83	48	0	96	48	2
STR	83	192	5
SCR	83	192	5	96	48	7
STR	83	336	1
SCR	83	336	1	96	48	3
STR	84	96	6
SUL	84	96	6	96	96	3
STR	85	0	0
SCR	85	0	0	96	192	7
TAP	86	0	0
TAP	86	0	1
TAP	86	96	0
TAP	86	96	7
TAP	86	192	6
TAP	86	192	7
STR	86	288	7
SCL	86	288	7	96	192	0
TAP	87	336	6
TAP	87	336	7
TAP	88	48	0
TAP	88	48	7
TAP	88	144	0
TAP	88	144	1
HLD	88	192	2	96
HLD	88	288	3	96
HLD	89	0	4	96
HLD	89	96	5	96
TAP	89	192	6
TAP	89	240	5
TAP	89	288	7
TAP	89	336	5
TAP	90	0	0
TAP	90	48	5
TAP	90	96	1
TAP	90	144	5
HLD	90	192	1	96
HLD	90	288	0	96
HLD	91	0	7	96
HLD	91	96	6	96
TAP	91	192	5
TAP	91	240	6
TAP	91	288	4
TAP	91	336	6
TAP	92	0	3
TAP	92	48	6
TAP	92	96	2
TAP	92	144	6
TAP	92	192	0
TAP	92	240	1
TAP	92	288	2
TAP	92	336	3
TAP	93	0	4
TAP	93	48	5
TAP	93	96	6
TAP	93	144	7
TAP	93	192	0
TAP	93	240	7
TAP	93	288	1
TAP	93	336	6
TAP	94	0	2
TAP	94	48	5
TAP	94	96	3
TAP	94	144	4
TAP	94	192	7
TAP	94	224	6
TAP	94	256	5
TAP	94	288	4
TAP	94	320	3
TAP	94	352	2
STR	95	0	1
SI_	95	0	1	96	48	5
BRK	95	96	1
STR	95	192	7
SCL	95	192	7	96	48	4
STR	96	0	7
SCR	96	0	7	96	48	2
STR	96	192	7
SI_	96	192	7	96	48	3
TAP	97	0	1
TAP	97	0	5
TAP	97	96	3
TAP	97	96	7
STR	97	192	0
SCR	97	192	0	96	48	3
STR	98	0	0
SCL	98	0	0	96	48	5
STR	98	192	0
SI_	98	192	0	96	48	4
TAP	99	48	7
TAP	99	96	7
TAP	99	144	7
TAP	99	192	0
TAP	99	240	6
TAP	99	288	1
TAP	99	336	5
TAP	100	0	2
TAP	100	48	4
TAP	100	96	3
TAP	100	144	3
TAP	100	192	4
TAP	100	240	2
TAP	100	288	5
TAP	100	336	1
TAP	101	0	6
TAP	101	48	0
TAP	101	96	7
TAP	101	144	7
TAP	101	192	3
TAP	101	240	4
TAP	101	288	2
TAP	101	336	5
TAP	102	0	1
TAP	102	48	6
TAP	102	96	0
TAP	102	144	7
TAP	102	192	0
TAP	102	240	1
TAP	102	288	2
TAP	102	336	3
TAP	103	0	4
TAP	103	48	5
TAP	103	96	6
TAP	103	144	7
STR	103	192	0
SCR	103	192	0	96	48	3
STR	104	0	0
SCL	104	0	0	96	48	5
STR	104	192	0
SI_	104	192	0	96	48	4
TAP	105	0	2
TAP	105	0	6
TAP	105	96	0
TAP	105	96	4
STR	105	192	7
SCL	105	192	7	96	48	4
STR	106	0	7
SCR	106	0	7	96	48	2
STR	106	192	7
SI_	106	192	7	96	48	3
TAP	107	48	0
TAP	107	96	0
TAP	107	144	0
TAP	107	192	7
TAP	107	240	1
TAP	107	288	6
TAP	107	336	2
TAP	108	0	5
TAP	108	48	3
TAP	108	96	4
TAP	108	144	4
TAP	108	192	3
TAP	108	240	5
TAP	108	288	2
TAP	108	336	6
TAP	109	0	1
TAP	109	48	7
TAP	109	96	0
TAP	109	144	0
TAP	109	192	4
TAP	109	240	3
TAP	109	288	5
TAP	109	336	2
TAP	110	0	6
TAP	110	48	1
TAP	110	96	7
TAP	110	144	0
TAP	110	192	7
TAP	110	240	6
TAP	110	288	5
TAP	110	336	4
TAP	111	0	3
TAP	111	48	2
TAP	111	96	1
TAP	111	144	0
STR	111	192	7
SCL	111	192	7	96	48	4
TAP	111	288	7
STR	112	0	0
SCR	112	0	0	96	48	3
TAP	112	96	0
TAP	112	192	4
TAP	112	240	3
TAP	112	288	5
TAP	112	336	2
TAP	113	0	6
TAP	113	48	1
TAP	113	96	7
TAP	113	144	7
STR	113	192	0
SI_	113	192	0	96	48	5
TAP	113	288	0
STR	114	0	7
SI_	114	0	7	96	48	2
TAP	114	96	7
TAP	114	192	3
TAP	114	240	4
TAP	114	288	2
TAP	114	336	5
TAP	115	0	1
TAP	115	48	6
STR	115	96	0
SCR	115	96	0	96	96	4
STR	115	192	4
SCR	115	192	4	96	96	0
STR	115	288	0
SCR	115	288	0	96	96	4
STR	116	0	4
SCR	116	0	4	96	96	0
STR	116	96	0
SCR	116	96	0	96	96	4
STR	116	192	4
SCR	116	192	4	96	96	0
STR	116	288	0
SCR	116	288	0	96	96	4
STR	117	0	4
SCR	117	0	4	96	96	0
STR	117	96	0
SCR	117	96	0	96	96	4
STR	117	192	4
SCR	117	192	4	96	96	0
STR	117	288	0
SI_	117	288	0	96	48	4
BRK	118	0	4
TAP	118	192	2
TAP	118	240	4
TAP	118	288	3
TAP	118	336	4
TAP	119	0	3
TAP	119	48	4
TAP	119	96	5
TAP	119	144	4
TAP	119	192	3
TAP	119	240	4
TAP	119	288	3
TAP	119	336	4
TAP	120	0	1
TAP	120	48	4
TAP	120	96	3
TAP	120	144	4
TAP	120	192	3
TAP	120	240	4
TAP	120	288	6
TAP	120	336	4
TAP	121	0	3
TAP	121	48	4
TAP	121	96	3
TAP	121	144	4
STR	121	192	0
SI_	121	192	0	96	48	2
STR	121	288	7
SI_	121	288	7	96	48	5
STR	122	96	1
SI_	122	96	1	96	48	3
STR	122	192	6
SI_	122	192	6	96	48	4
TAP	123	0	0
TAP	123	48	7
TAP	123	96	1
TAP	123	144	6
TAP	123	192	2
TAP	123	240	5
TAP	123	288	1
TAP	123	336	6
TAP	124	0	0
TAP	124	48	7
BRK	124	96	0
TAP	124	192	3
TAP	124	192	4
TAP	124	240	3
TAP	124	240	4
TAP	124	288	1
TAP	124	288	6
TAP	125	0	1
TAP	125	0	6
TAP	125	96	3
TAP	125	96	4
TAP	125	144	3
TAP	125	144	4
TAP	125	192	1
TAP	125	192	6
TAP	125	288	1
TAP	125	288	6
TAP	126	0	2
TAP	126	0	5
STR	126	48	0
SI_	126	48	0	96	48	3
STR	126	48	7
SI_	126	48	7	96	48	4
BRK	126	144	0
BRK	126	144	7

T_REC_TAP	562
T_REC_BRK	9
T_REC_XTP	0
T_REC_HLD	36
T_REC_XHO	0
T_REC_STR	114
T_REC_BST	0
T_REC_XST	0
T_REC_TTP	0
T_REC_THO	0
T_REC_SLD	114
T_REC_ALL	835
T_NUM_TAP	676
T_NUM_BRK	9
T_NUM_HLD	36
T_NUM_SLD	114
T_NUM_ALL	835
T_JUDGE_TAP	685
T_JUDGE_HLD	48
T_JUDGE_SLD	114
T_JUDGE_ALL	847
TTM_EACHPAIRS	67
TTM_SCR_TAP	338000
TTM_SCR_BRK	23400
TTM_SCR_HLD	36000
TTM_SCR_SLD	171000
TTM_SCR_ALL	568400
TTM_SCR_S	550500
TTM_SCR_SS	567500
TTM_RAT_ACV	10015

