VERSION	0.00.00	1.03.00
FES_MODE	0
BPM_DEF	256.000	252.000	256.000	106.000
MET_DEF	4	4
RESOLUTION	384
CLK_DEF	276
COMPATIBLE_CODE	MA2

BPM	0	0	256.000
BPM	39	0	220.000
BPM	39	96	200.000
BPM	39	192	177.000
BPM	39	288	158.000
BPM	40	0	139.000
BPM	40	96	106.000
BPM	40	192	252.000
MET	0	0	4	6
MET	46	192	4	8
MET	70	192	4	7
MET	74	0	4	6
MET	77	0	4	8
MET	85	0	4	7
MET	88	192	4	8
MET	94	192	4	4

TAP	1	192	2
TAP	1	288	2
TAP	1	288	3
TAP	2	96	5
TAP	2	192	4
TAP	2	192	5
TAP	3	0	6
TAP	3	96	6
TAP	3	96	7
TAP	3	288	1
TAP	4	0	0
TAP	4	0	1
TAP	4	192	2
TAP	4	192	3
TAP	4	288	2
TAP	4	288	3
TAP	5	96	4
TAP	5	96	5
TAP	5	192	4
TAP	5	192	5
TAP	6	0	1
TAP	6	0	6
TAP	6	96	1
TAP	6	96	6
TAP	6	288	2
TAP	7	0	3
TAP	7	96	4
TAP	7	192	5
TAP	7	288	4
TAP	7	288	5
TAP	8	96	2
TAP	8	96	3
TAP	8	192	2
TAP	8	192	3
TAP	9	0	6
TAP	9	0	7
TAP	9	96	6
TAP	9	96	7
TAP	9	288	0
TAP	9	288	1
TAP	10	0	0
TAP	10	0	1
TAP	10	192	2
TAP	10	192	3
TAP	10	288	1
TAP	10	288	4
TAP	11	96	4
TAP	11	96	5
TAP	11	192	3
TAP	11	192	6
TAP	12	0	0
TAP	12	0	7
TAP	12	96	1
TAP	12	96	6
TAP	12	288	5
TAP	13	0	4
TAP	13	96	3
TAP	13	192	2
TAP	13	288	2
TAP	13	288	3
TAP	14	96	4
TAP	14	96	5
TAP	14	192	4
TAP	14	192	5
TAP	15	0	6
TAP	15	0	7
TAP	15	96	0
TAP	15	96	5
TAP	15	288	0
TAP	15	288	1
TAP	16	0	2
TAP	16	0	7
TAP	16	192	3
TAP	16	192	4
TAP	16	288	2
TAP	16	288	5
TAP	17	96	4
TAP	17	96	5
TAP	17	192	2
TAP	17	192	3
TAP	18	0	2
TAP	18	0	3
TAP	18	96	4
TAP	18	96	5
TAP	18	288	6
TAP	19	0	7
TAP	19	96	0
TAP	19	192	1
TAP	19	288	0
TAP	19	288	1
TAP	20	96	6
TAP	20	96	7
TAP	20	192	0
TAP	20	192	5
TAP	21	0	0
TAP	21	0	1
TAP	21	96	2
TAP	21	96	7
TAP	21	288	3
TAP	21	288	4
TAP	22	0	2
TAP	22	0	5
TAP	22	192	6
TAP	22	192	7
TAP	22	288	4
TAP	22	288	5
TAP	23	96	0
TAP	23	96	1
TAP	23	192	2
TAP	23	192	3
TAP	24	0	5
TAP	24	96	6
TAP	24	192	0
TAP	24	192	7
TAP	24	288	1
TAP	24	288	6
TAP	25	0	2
TAP	25	0	5
TAP	25	96	3
TAP	25	96	4
HLD	25	192	5	288
TAP	26	96	4
TAP	26	192	3
TAP	26	288	2
TAP	27	0	1
TAP	27	96	2
TAP	27	192	3
HLD	27	288	4	288
HLD	28	192	2	288
TAP	29	96	3
TAP	29	192	4
TAP	29	288	5
HLD	30	0	6	144
TAP	30	144	7
HLD	30	288	1	144
TAP	31	48	0
HLD	31	192	5	144
TAP	31	336	4
HLD	32	96	2	144
TAP	32	240	3
TAP	33	0	1
TAP	33	96	0
TAP	33	192	7
TAP	33	288	6
TAP	34	0	7
TAP	34	96	0
TAP	34	192	1
TAP	34	192	6
TAP	35	96	2
TAP	35	96	3
TAP	35	192	1
TAP	35	192	4
TAP	35	288	0
TAP	35	288	5
HLD	36	0	6	336
TAP	36	336	0
TAP	37	48	1
TAP	37	48	7
TAP	37	144	0
TAP	37	192	0
TAP	38	96	4
TAP	38	96	5
TAP	38	192	3
TAP	38	192	6
TAP	38	288	2
TAP	38	288	7
HLD	39	0	1	96
HLD	39	96	2	96
HLD	39	192	3	96
HLD	39	288	4	96
HLD	40	0	5	96
BRK	40	96	6
TAP	40	192	6
TAP	40	288	6
TAP	41	0	6
TAP	41	0	7
TAP	41	96	1
TAP	41	192	1
TAP	41	288	0
TAP	41	288	1
TAP	42	0	5
TAP	42	96	5
TAP	42	192	4
TAP	42	192	5
TAP	42	288	2
TAP	43	0	2
TAP	43	96	2
TAP	43	96	3
TAP	43	192	5
TAP	43	288	5
TAP	44	0	4
TAP	44	0	6
TAP	44	96	3
TAP	44	192	3
TAP	44	288	2
TAP	44	288	4
TAP	45	0	1
TAP	45	96	1
TAP	45	192	0
TAP	45	192	2
TAP	45	288	7
TAP	46	0	7
BRK	46	96	0
BRK	46	96	6
STR	46	288	1
SI_	46	288	1	96	120	4
TAP	47	144	6
TAP	47	240	6
TAP	48	0	5
TAP	48	48	4
TAP	48	96	5
TAP	48	144	4
STR	48	288	6
SI_	48	288	6	96	120	3
TAP	49	144	1
TAP	49	240	1
TAP	50	0	2
TAP	50	48	3
TAP	50	96	2
TAP	50	144	3
STR	50	288	1
SI_	50	288	1	96	120	4
TAP	51	144	6
TAP	51	240	6
TAP	52	0	5
TAP	52	48	4
TAP	52	96	5
TAP	52	144	4
STR	52	288	6
SI_	52	288	6	96	120	3
TAP	53	192	2
TAP	53	192	3
TAP	53	288	0
TAP	53	288	1
TAP	54	0	6
TAP	54	0	7
TAP	54	96	4
TAP	54	96	5
TAP	54	288	6
HLD	55	0	6	144
TAP	55	144	7
TAP	55	240	7
TAP	56	0	2
TAP	56	48	3
TAP	56	96	2
TAP	56	144	3
TAP	56	288	1
HLD	57	0	1	144
TAP	57	144	0
TAP	57	240	0
TAP	58	0	5
TAP	58	48	4
TAP	58	96	5
TAP	58	144	4
TAP	58	288	6
HLD	59	0	6	144
TAP	59	144	7
TAP	59	240	7
TAP	60	0	2
TAP	60	48	3
TAP	60	96	2
TAP	60	144	3
TAP	60	288	1
HLD	61	0	1	192
TAP	61	192	0
TAP	61	288	0
TAP	61	288	1
TAP	62	0	6
TAP	62	96	6
TAP	62	96	7
TAP	62	192	5
TAP	62	288	5
TAP	63	0	4
TAP	63	0	6
TAP	63	192	2
TAP	63	288	2
TAP	64	0	1
TAP	64	0	3
TAP	64	192	4
TAP	64	288	3
TAP	65	0	5
TAP	65	96	2
TAP	65	192	0
TAP	65	192	1
TAP	65	336	5
TAP	65	336	6
TAP	66	96	2
TAP	66	96	3
TAP	66	192	1
TAP	66	288	2
TAP	67	0	3
TAP	67	96	4
TAP	67	96	5
TAP	67	192	6
TAP	67	288	5
TAP	68	0	4
TAP	68	96	2
TAP	68	96	3
TAP	68	240	6
TAP	68	240	7
TAP	69	0	4
TAP	69	0	5
TAP	69	144	0
TAP	69	144	1
TAP	69	288	6
TAP	69	288	7
TAP	70	48	3
TAP	70	48	4
TAP	70	192	1
TAP	70	192	6
TAP	70	288	2
TAP	71	0	3
TAP	71	96	4
TAP	71	192	1
TAP	71	192	5
TAP	72	0	1
TAP	72	0	6
TAP	72	96	5
TAP	72	192	4
TAP	72	288	3
TAP	73	0	2
TAP	73	0	6
TAP	73	192	0
TAP	73	288	7
STR	74	0	0
SI_	74	0	0	96	96	4
STR	74	0	1
SI_	74	0	1	96	96	3
STR	74	288	6
SI_	74	288	6	96	96	4
STR	74	288	7
SI_	74	288	7	96	96	3
STR	75	192	0
SI_	75	192	0	96	96	5
STR	75	192	1
SI_	75	192	1	96	96	4
STR	76	96	6
SI_	76	96	6	96	96	3
STR	76	96	7
SI_	76	96	7	96	96	2
TAP	77	0	2
TAP	77	96	2
TAP	77	192	1
TAP	77	192	3
TAP	78	0	5
TAP	78	96	5
TAP	78	192	4
TAP	78	192	6
TAP	79	0	3
TAP	79	96	4
TAP	79	192	2
TAP	79	288	5
TAP	80	0	6
TAP	80	0	7
TAP	80	144	1
TAP	80	144	2
TAP	80	288	4
TAP	80	288	5
TAP	81	0	6
TAP	81	96	5
TAP	81	192	4
TAP	81	288	2
TAP	81	288	3
TAP	82	0	1
TAP	82	96	2
TAP	82	192	3
TAP	82	288	4
TAP	82	288	5
TAP	83	48	0
TAP	83	48	1
TAP	83	192	2
TAP	83	192	3
TAP	83	336	6
TAP	83	336	7
TAP	84	96	0
TAP	84	96	1
TAP	84	240	3
TAP	84	240	4
HLD	85	0	1	288
HLD	85	0	6	288
TAP	86	0	0
TAP	86	0	7
TAP	86	96	1
TAP	86	96	6
TAP	86	192	2
TAP	86	192	5
HLD	86	288	3	336
HLD	86	288	4	336
TAP	87	336	2
TAP	87	336	5
TAP	88	48	1
TAP	88	48	6
TAP	88	144	0
TAP	88	144	7
TAP	88	192	0
TAP	88	192	7
TAP	89	0	3
TAP	89	0	4
TAP	89	192	3
TAP	89	288	3
TAP	90	0	5
TAP	90	96	5
TAP	90	192	1
TAP	90	288	1
TAP	91	0	7
TAP	91	96	7
TAP	91	192	4
TAP	91	192	5
TAP	91	336	4
TAP	91	336	5
TAP	92	96	4
TAP	92	96	5
TAP	92	192	2
TAP	92	192	3
TAP	92	336	2
TAP	92	336	3
TAP	93	96	2
TAP	93	96	3
TAP	93	192	1
TAP	93	192	6
TAP	93	336	1
TAP	93	336	6
STR	94	96	6
SCL	94	96	6	96	288	1
STR	95	192	0
SI_	95	192	0	96	96	5
STR	96	0	7
SI_	96	0	7	96	96	2
STR	96	192	1
SI_	96	192	1	96	96	4
STR	97	0	6
SI_	97	0	6	96	96	3
TAP	97	192	2
STR	98	0	1
SCR	98	0	1	96	192	4
STR	98	0	5
SCR	98	0	5	96	192	0
TAP	99	192	7
TAP	99	288	0
TAP	100	0	6
TAP	100	96	2
TAP	100	192	4
TAP	100	288	3
TAP	101	0	5
TAP	101	96	1
TAP	101	192	7
TAP	101	288	2
TAP	102	0	5
TAP	102	96	0
TAP	102	192	4
TAP	102	240	3
TAP	102	288	4
TAP	102	336	3
TAP	103	0	4
STR	103	192	7
SI_	103	192	7	96	96	2
STR	104	0	0
SI_	104	0	0	96	96	5
STR	104	192	6
SI_	104	192	6	96	96	3
STR	105	0	1
SI_	105	0	1	96	96	4
TAP	105	192	5
STR	106	0	2
SCL	106	0	2	96	192	7
STR	106	0	6
SCL	106	0	6	96	192	3
TAP	107	192	0
TAP	107	288	7
TAP	108	0	1
TAP	108	96	5
TAP	108	192	3
TAP	108	288	4
TAP	109	0	2
TAP	109	96	6
TAP	109	192	0
TAP	109	288	5
TAP	110	0	2
TAP	110	96	7
TAP	110	192	3
TAP	110	240	4
TAP	110	288	3
TAP	110	336	4
TAP	111	0	3
STR	111	192	0
SI_	111	192	0	96	144	5
STR	111	192	1
SI_	111	192	1	96	144	4
STR	112	192	6
SI_	112	192	6	96	144	3
STR	112	192	7
SI_	112	192	7	96	144	2
STR	113	192	0
SCL	113	192	0	96	192	5
STR	113	192	1
SCR	113	192	1	96	192	4
STR	114	192	6
SCL	114	192	6	96	192	3
STR	114	192	7
SCR	114	192	7	96	192	2
TAP	115	192	3
TAP	115	192	4
TAP	115	288	6
TAP	115	288	7
TAP	116	0	6
TAP	116	0	7
TAP	116	96	3
TAP	116	96	4
TAP	116	192	0
TAP	116	192	1
TAP	116	288	0
TAP	116	288	1
TAP	117	0	2
TAP	117	0	3
TAP	117	96	0
TAP	117	96	7
TAP	117	192	0
TAP	117	192	7
TAP	117	288	4
TAP	117	288	5
TAP	118	0	0
TAP	118	0	7
BRK	118	96	0
BRK	118	96	7
TAP	118	192	1
TAP	118	288	2
TAP	119	0	3
TAP	119	96	7
TAP	119	192	6
TAP	119	288	5
TAP	120	0	0
TAP	120	96	1
TAP	120	192	2
TAP	120	288	6
TAP	121	0	5
TAP	121	96	4
TAP	121	192	3
TAP	121	288	2
TAP	122	0	0
TAP	122	0	1
TAP	122	96	4
TAP	122	192	5
TAP	122	288	6
TAP	122	288	7
TAP	123	0	2
TAP	123	0	5
TAP	123	96	1
TAP	123	96	6
TAP	123	192	0
TAP	123	192	7
TAP	123	288	1
TAP	123	336	6
TAP	124	0	1
TAP	124	48	6
TAP	124	96	1
TAP	124	192	3
TAP	124	240	4
TAP	124	288	2
TAP	125	0	2
TAP	125	96	4
TAP	125	144	3
TAP	125	192	5
TAP	125	288	5
TAP	126	0	0
TAP	126	48	7
BRK	126	144	1
BRK	126	144	6

T_REC_TAP	473
T_REC_BRK	7
T_REC_XTP	0
T_REC_HLD	21
T_REC_XHO	0
T_REC_STR	33
T_REC_BST	0
T_REC_XST	0
T_REC_TTP	0
T_REC_THO	0
T_REC_SLD	33
T_REC_ALL	567
T_NUM_TAP	506
T_NUM_BRK	7
T_NUM_HLD	21
T_NUM_SLD	33
T_NUM_ALL	567
T_JUDGE_TAP	513
T_JUDGE_HLD	53
T_JUDGE_SLD	33
T_JUDGE_ALL	599
TTM_EACHPAIRS	147
TTM_SCR_TAP	253000
TTM_SCR_BRK	18200
TTM_SCR_HLD	21000
TTM_SCR_SLD	49500
TTM_SCR_ALL	341700
TTM_SCR_S	330800
TTM_SCR_SS	341000
TTM_RAT_ACV	10020

