VERSION	0.00.00	1.03.00
FES_MODE	0
BPM_DEF	256.000	252.000	256.000	106.000
MET_DEF	4	4
RESOLUTION	384
CLK_DEF	276
COMPATIBLE_CODE	MA2

BPM	0	0	256.000
BPM	39	0	220.000
BPM	39	96	200.000
BPM	39	192	177.000
BPM	39	288	158.000
BPM	40	0	139.000
BPM	40	96	106.000
BPM	40	192	252.000
MET	0	0	4	6
MET	46	192	4	8
MET	70	192	4	7
MET	74	0	4	6
MET	77	0	4	8
MET	85	0	4	7
MET	88	192	4	8
MET	94	192	4	4

TAP	1	192	0
TAP	1	288	0
TAP	2	96	1
TAP	2	192	1
TAP	3	0	2
TAP	3	96	2
TAP	3	288	3
TAP	4	0	3
TAP	4	192	4
TAP	4	288	4
TAP	5	96	5
TAP	5	192	5
TAP	6	0	6
TAP	6	96	6
TAP	6	288	0
TAP	6	288	7
TAP	7	192	3
TAP	7	288	3
TAP	8	96	2
TAP	8	192	2
TAP	9	0	1
TAP	9	96	1
TAP	9	288	0
TAP	10	0	0
TAP	10	192	7
TAP	10	288	7
TAP	11	96	6
TAP	11	192	6
TAP	12	0	5
TAP	12	96	5
TAP	12	288	3
TAP	12	288	4
TAP	13	192	1
TAP	13	288	1
TAP	14	96	0
TAP	14	96	7
TAP	14	192	0
TAP	14	192	7
TAP	15	0	6
TAP	15	96	6
TAP	15	288	0
TAP	15	288	7
TAP	16	0	0
TAP	16	0	7
TAP	16	192	1
TAP	16	288	1
TAP	17	96	2
TAP	17	96	3
TAP	17	192	2
TAP	17	192	3
TAP	18	0	6
TAP	18	96	6
TAP	18	288	4
TAP	18	288	5
TAP	19	192	6
TAP	19	288	6
TAP	20	96	0
TAP	20	96	7
TAP	20	192	0
TAP	20	192	7
TAP	21	0	1
TAP	21	96	1
TAP	21	288	0
TAP	21	288	7
TAP	22	0	0
TAP	22	0	7
TAP	22	192	6
TAP	22	192	7
TAP	22	288	6
TAP	22	288	7
TAP	23	96	0
TAP	23	96	1
TAP	23	192	0
TAP	23	192	1
TAP	24	0	0
TAP	24	96	0
TAP	24	192	0
TAP	24	288	7
TAP	25	0	7
TAP	25	96	7
STR	25	192	6
SCL	25	192	6	96	384	2
TAP	27	0	1
TAP	27	96	2
TAP	27	192	3
TAP	27	288	4
STR	28	192	1
SCR	28	192	1	96	384	5
TAP	30	0	6
TAP	30	96	5
TAP	30	192	4
TAP	30	288	3
TAP	31	192	1
TAP	31	288	2
TAP	32	0	3
TAP	32	96	4
TAP	33	0	5
TAP	33	96	4
TAP	33	96	5
TAP	33	288	2
TAP	34	0	2
TAP	34	0	3
HLD	34	192	4	288
TAP	35	96	3
TAP	35	192	4
TAP	35	288	3
HLD	36	0	3	336
TAP	36	336	4
TAP	37	48	3
TAP	37	144	4
TAP	37	192	4
TAP	38	96	7
TAP	38	192	7
TAP	38	288	7
HLD	39	0	0	576
HLD	39	288	7	288
TAP	41	96	1
TAP	41	96	6
TAP	42	0	2
TAP	42	0	5
TAP	42	288	3
TAP	42	288	4
TAP	43	192	2
TAP	43	288	2
TAP	44	0	2
TAP	44	96	5
TAP	44	192	5
TAP	44	288	5
HLD	45	0	3	480
HLD	45	288	4	192
TAP	46	288	2
TAP	47	0	2
TAP	47	0	3
TAP	47	192	3
TAP	47	288	4
TAP	48	0	5
TAP	48	96	5
TAP	48	288	5
TAP	49	0	4
TAP	49	0	5
TAP	49	192	4
TAP	49	288	3
TAP	50	0	2
TAP	50	96	2
TAP	50	288	1
TAP	51	0	0
TAP	51	0	1
TAP	51	192	0
TAP	51	288	7
TAP	52	0	6
TAP	52	96	6
TAP	52	288	0
TAP	53	0	0
TAP	53	0	7
STR	53	192	0
SI_	53	192	0	96	240	3
STR	53	192	7
SI_	53	192	7	96	240	4
TAP	54	288	5
TAP	55	0	4
TAP	55	0	5
TAP	55	192	4
TAP	55	288	3
TAP	56	0	2
TAP	56	96	2
TAP	56	288	2
TAP	57	0	2
TAP	57	0	3
TAP	57	192	3
TAP	57	288	4
TAP	58	0	5
TAP	58	96	5
TAP	58	288	6
TAP	59	0	6
TAP	59	0	7
TAP	59	192	7
TAP	59	288	0
TAP	60	0	1
TAP	60	96	1
TAP	60	288	7
TAP	61	0	0
TAP	61	0	7
STR	61	192	0
SI_	61	192	0	96	192	3
STR	61	192	7
SI_	61	192	7	96	192	4
TAP	62	192	2
TAP	62	288	3
TAP	63	0	2
TAP	63	192	5
TAP	63	288	4
TAP	64	0	5
TAP	64	192	6
TAP	64	288	7
TAP	65	0	6
TAP	65	192	0
TAP	65	192	1
TAP	66	0	6
TAP	66	0	7
TAP	66	192	5
TAP	66	288	4
TAP	67	0	5
TAP	67	192	2
TAP	67	288	3
TAP	68	0	2
STR	68	192	7
SI_	68	192	7	96	192	3
STR	69	192	0
SI_	69	192	0	96	192	4
TAP	70	192	5
TAP	70	288	4
TAP	71	0	3
TAP	71	96	2
TAP	71	192	2
TAP	72	0	2
TAP	72	96	3
TAP	72	192	4
TAP	72	288	5
TAP	73	0	5
TAP	73	192	2
TAP	73	288	2
HLD	74	0	4	288
HLD	74	288	3	288
HLD	75	192	5	288
HLD	76	96	2	288
TAP	77	0	3
TAP	77	96	3
TAP	77	288	5
TAP	78	0	4
TAP	78	0	5
TAP	78	192	6
TAP	78	288	6
TAP	78	288	7
TAP	79	96	1
TAP	79	192	0
TAP	79	192	1
STR	80	0	2
SUL	80	0	2	96	312	5
TAP	81	192	5
TAP	81	288	4
TAP	81	288	5
TAP	82	96	2
TAP	82	192	2
TAP	82	192	3
STR	83	0	4
SUL	83	0	4	96	528	3
TAP	85	0	2
TAP	85	0	5
TAP	86	0	3
TAP	86	0	4
TAP	86	96	2
TAP	86	96	5
TAP	86	192	1
TAP	86	192	6
BRK	86	288	0
BRK	86	288	7
TAP	87	336	1
TAP	87	336	6
TAP	88	48	2
TAP	88	48	5
BRK	88	144	3
BRK	88	144	4
TAP	89	0	2
TAP	89	0	3
TAP	89	192	4
TAP	89	192	5
TAP	90	0	6
TAP	90	0	7
TAP	90	192	0
TAP	90	192	1
TAP	91	0	0
TAP	91	0	7
STR	91	192	0
SI_	91	192	0	96	192	4
STR	92	192	7
SI_	92	192	7	96	192	3
STR	93	192	1
SI_	93	192	1	96	192	4
STR	94	192	6
SI_	94	192	6	96	192	3
HLD	95	192	2	192
HLD	96	0	4	192
HLD	96	192	3	192
TAP	97	0	5
HLD	97	192	5	192
HLD	98	0	3	192
HLD	98	192	4	192
TAP	99	0	2
TAP	99	192	1
TAP	99	288	1
TAP	100	0	0
TAP	100	96	0
TAP	100	192	7
TAP	100	288	7
TAP	101	0	6
TAP	101	192	0
TAP	101	288	7
TAP	102	0	0
TAP	102	96	7
TAP	102	192	0
TAP	103	0	1
TAP	103	0	6
HLD	103	192	5	192
HLD	104	0	4	192
HLD	104	192	3	192
TAP	105	0	2
HLD	105	192	2	192
HLD	106	0	3	192
HLD	106	192	4	192
TAP	107	0	5
TAP	107	192	6
TAP	107	288	6
TAP	108	0	7
TAP	108	96	7
TAP	108	192	0
TAP	108	288	0
TAP	109	0	1
TAP	109	192	7
TAP	109	288	0
TAP	110	0	7
TAP	110	96	0
TAP	110	192	7
TAP	111	0	1
TAP	111	0	6
TAP	111	192	2
TAP	111	288	2
TAP	112	0	3
TAP	112	96	3
TAP	112	192	4
TAP	112	288	4
TAP	113	0	5
TAP	113	192	5
TAP	113	288	5
TAP	114	0	4
TAP	114	96	4
TAP	114	192	3
TAP	114	288	3
TAP	115	0	2
TAP	115	192	0
TAP	115	192	1
TAP	115	288	0
TAP	115	288	1
TAP	116	96	6
TAP	116	96	7
TAP	116	192	6
TAP	116	192	7
TAP	117	0	0
TAP	117	96	0
TAP	117	192	0
TAP	117	288	7
TAP	118	0	7
BRK	118	96	7
HLD	118	192	0	288
HLD	119	96	6	288
HLD	120	0	1	288
HLD	120	288	7	288
TAP	121	192	0
TAP	121	288	0
TAP	121	288	7
TAP	122	96	1
TAP	122	96	6
TAP	122	192	1
TAP	122	192	6
TAP	123	0	2
TAP	123	0	5
TAP	123	96	2
TAP	123	96	5
TAP	123	192	2
TAP	123	192	5
TAP	123	288	3
TAP	123	288	4
TAP	124	192	1
TAP	124	288	1
TAP	125	0	1
TAP	125	96	6
TAP	125	192	6
TAP	125	288	6
TAP	126	0	0
TAP	126	48	7
TAP	126	96	0
TAP	126	144	7

T_REC_TAP	322
T_REC_BRK	5
T_REC_XTP	0
T_REC_HLD	26
T_REC_XHO	0
T_REC_STR	14
T_REC_BST	0
T_REC_XST	0
T_REC_TTP	0
T_REC_THO	0
T_REC_SLD	14
T_REC_ALL	381
T_NUM_TAP	336
T_NUM_BRK	5
T_NUM_HLD	26
T_NUM_SLD	14
T_NUM_ALL	381
T_JUDGE_TAP	341
T_JUDGE_HLD	84
T_JUDGE_SLD	14
T_JUDGE_ALL	439
TTM_EACHPAIRS	65
TTM_SCR_TAP	168000
TTM_SCR_BRK	13000
TTM_SCR_HLD	26000
TTM_SCR_SLD	21000
TTM_SCR_ALL	228000
TTM_SCR_S	220700
TTM_SCR_SS	227500
TTM_RAT_ACV	10021

