VERSION	0.00.00	1.03.00
FES_MODE	0
BPM_DEF	256.000	252.000	256.000	106.000
MET_DEF	4	4
RESOLUTION	384
CLK_DEF	276
COMPATIBLE_CODE	MA2

BPM	0	0	256.000
BPM	39	0	220.000
BPM	39	96	200.000
BPM	39	192	177.000
BPM	39	288	158.000
BPM	40	0	139.000
BPM	40	96	106.000
BPM	40	192	252.000
MET	0	0	4	6
MET	46	192	4	8
MET	70	192	4	7
MET	74	0	4	6
MET	77	0	4	8
MET	85	0	4	7
MET	88	192	4	8
MET	94	192	4	4

TAP	1	192	0
TAP	3	0	7
TAP	4	192	0
TAP	6	0	7
TAP	7	192	0
TAP	8	96	0
TAP	9	0	7
TAP	10	192	7
TAP	11	96	7
TAP	12	0	0
TAP	13	192	0
TAP	13	288	0
TAP	15	0	1
TAP	15	96	1
TAP	16	192	2
TAP	16	288	2
TAP	18	0	3
TAP	18	96	3
TAP	19	192	4
TAP	19	288	4
TAP	21	0	5
TAP	21	96	5
TAP	22	192	6
TAP	22	288	6
TAP	24	0	7
TAP	24	96	7
TAP	25	192	7
TAP	26	96	7
TAP	27	0	7
TAP	27	288	7
TAP	28	192	0
TAP	29	96	0
TAP	30	0	0
TAP	30	288	0
TAP	31	192	7
TAP	32	96	6
TAP	33	0	5
TAP	33	288	4
STR	34	192	3
SI_	34	192	3	96	672	0
STR	37	192	7
SI_	37	192	7	96	672	4
TAP	40	192	3
TAP	41	96	2
TAP	42	0	1
TAP	42	288	0
TAP	43	192	7
TAP	44	96	6
TAP	45	0	5
TAP	45	288	4
TAP	46	288	3
TAP	47	0	3
TAP	47	144	3
TAP	48	288	4
TAP	49	0	4
TAP	49	144	4
TAP	50	288	3
TAP	51	0	3
TAP	51	144	3
TAP	52	288	4
TAP	53	0	4
TAP	53	192	3
TAP	53	192	4
TAP	54	0	3
TAP	54	0	4
TAP	54	288	4
TAP	55	0	4
TAP	55	144	4
TAP	56	288	3
TAP	57	0	3
TAP	57	144	3
TAP	58	288	4
TAP	59	0	4
TAP	59	144	4
TAP	60	288	3
TAP	61	0	3
TAP	61	192	3
TAP	61	192	4
TAP	62	0	3
TAP	62	0	4
TAP	62	192	2
TAP	63	0	2
TAP	63	192	1
TAP	64	0	1
TAP	64	192	0
TAP	65	0	0
TAP	65	192	0
TAP	65	192	7
TAP	66	192	6
TAP	67	0	6
TAP	67	192	5
TAP	68	192	4
TAP	68	192	5
TAP	69	144	2
TAP	69	144	3
HLD	70	192	4	1152
HLD	72	96	3	480
TAP	74	0	3
TAP	74	96	3
TAP	74	288	4
TAP	75	0	4
TAP	75	192	3
TAP	75	288	3
TAP	76	96	4
TAP	77	0	5
TAP	77	192	5
TAP	78	0	6
TAP	78	192	6
TAP	79	0	7
TAP	79	192	7
TAP	80	0	0
TAP	80	0	7
TAP	81	0	1
TAP	81	192	1
TAP	82	0	2
TAP	83	0	2
TAP	83	0	3
TAP	83	336	4
TAP	83	336	5
STR	85	0	4
SI_	85	0	4	96	672	7
TAP	88	192	0
TAP	89	0	0
TAP	89	192	0
TAP	90	192	7
TAP	91	0	7
TAP	91	192	7
TAP	92	192	0
TAP	92	192	7
TAP	93	192	0
TAP	93	192	7
BRK	94	192	0
BRK	94	192	7
TAP	95	192	0
TAP	96	0	0
TAP	96	192	0
TAP	97	0	0
TAP	97	192	1
TAP	98	0	1
TAP	98	192	1
TAP	99	192	2
TAP	100	0	2
TAP	100	192	2
TAP	101	0	2
TAP	101	192	3
TAP	102	0	3
TAP	102	192	3
TAP	103	192	4
TAP	104	0	4
TAP	104	192	4
TAP	105	0	4
TAP	105	192	5
TAP	106	0	5
TAP	106	192	5
TAP	107	192	6
TAP	108	0	6
TAP	108	192	6
TAP	109	0	6
TAP	109	192	7
TAP	110	0	7
BRK	110	192	7
TAP	111	192	0
TAP	111	192	7
TAP	112	192	1
TAP	112	192	6
TAP	113	192	2
TAP	113	192	5
TAP	114	192	3
TAP	114	192	4
TAP	115	192	5
TAP	115	288	5
TAP	116	96	4
TAP	116	192	4
TAP	117	0	3
TAP	117	96	3
BRK	117	288	2
TAP	118	192	3
TAP	119	96	2
TAP	120	0	1
TAP	120	288	0
TAP	121	192	7
TAP	122	96	6
TAP	123	0	5
TAP	123	288	4
STR	124	192	3
SI_	124	192	3	96	672	7

T_REC_TAP	172
T_REC_BRK	4
T_REC_XTP	0
T_REC_HLD	2
T_REC_XHO	0
T_REC_STR	4
T_REC_BST	0
T_REC_XST	0
T_REC_TTP	0
T_REC_THO	0
T_REC_SLD	4
T_REC_ALL	186
T_NUM_TAP	176
T_NUM_BRK	4
T_NUM_HLD	2
T_NUM_SLD	4
T_NUM_ALL	186
T_JUDGE_TAP	180
T_JUDGE_HLD	17
T_JUDGE_SLD	4
T_JUDGE_ALL	201
TTM_EACHPAIRS	17
TTM_SCR_TAP	88000
TTM_SCR_BRK	10400
TTM_SCR_HLD	2000
TTM_SCR_SLD	6000
TTM_SCR_ALL	106400
TTM_SCR_S	102850
TTM_SCR_SS	106000
TTM_RAT_ACV	10037

