VERSION	0.00.00	1.03.00
FES_MODE	0
BPM_DEF	186.000	186.000	186.000	186.000
MET_DEF	4	4
RESOLUTION	384
CLK_DEF	384
COMPATIBLE_CODE	MA2

BPM	0	0	186.000
MET	0	0	4	4

STR	2	0	7
SCR	2	0	7	96	144	2
STR	3	0	6
SUR	3	0	6	96	144	3
STR	4	0	0
SCL	4	0	0	96	144	5
STR	5	0	1
SSL	5	0	1	96	144	5
HLD	5	336	7	192
TAP	6	144	0
TAP	6	192	0
TAP	6	240	0
HLD	6	336	0	192
TAP	7	144	7
TAP	7	192	6
HLD	7	240	5	96
TAP	7	336	4
HLD	8	96	2	240
TAP	8	144	3
TAP	8	240	5
STR	8	336	7
SSR	8	336	7	96	96	3
TAP	9	192	2
STR	9	240	2
SI_	9	240	2	96	96	5
HLD	9	336	2	192
TAP	10	144	6
TAP	10	192	6
STR	10	240	6
SI_	10	240	6	96	96	1
HLD	10	336	6	96
TAP	11	144	1
TAP	11	192	0
STR	11	240	7
SI_	11	240	7	96	48	3
TAP	11	336	7
TAP	12	96	0
STR	12	144	1
SV_	12	144	1	96	48	4
STR	12	240	6
SV_	12	240	6	96	48	3
TAP	13	192	0
TAP	13	240	7
HLD	13	336	1	240
TAP	14	48	4
TAP	14	96	3
TAP	14	192	6
HLD	14	336	6	240
TAP	15	48	3
TAP	15	96	4
TAP	15	192	1
HLD	15	336	7	192
HLD	16	144	0	192
HLD	16	336	7	144
TAP	17	48	6
TAP	17	96	5
TAP	17	192	0
TAP	17	240	1
STR	17	336	7
SV_	17	336	7	96	48	5
STR	18	96	1
SV_	18	96	1	96	48	3
STR	18	336	6
SV_	18	336	6	96	48	4
STR	19	96	0
SV_	19	96	0	96	48	2
HLD	19	336	3	144
TAP	20	48	4
HLD	20	96	4	144
TAP	20	192	5
TAP	20	240	5
HLD	20	336	4	336
TAP	21	48	3
TAP	21	96	3
TAP	21	192	2
TAP	21	288	1
TAP	22	0	6
TAP	22	0	7
TAP	22	96	4
TAP	22	96	5
TAP	22	192	2
TAP	22	192	3
TAP	22	288	1
TAP	22	336	0
TAP	23	48	6
TAP	23	96	7
STR	23	192	2
SI_	23	192	2	96	48	7
STR	23	192	5
SI_	23	192	5	96	48	0
TAP	24	0	0
TAP	24	0	1
TAP	24	96	2
TAP	24	96	3
TAP	24	192	4
TAP	24	192	5
TAP	24	288	6
TAP	24	336	7
TAP	25	48	1
TAP	25	96	0
STR	25	192	2
SI_	25	192	2	96	48	6
STR	25	192	3
SI_	25	192	3	96	48	6
TAP	26	0	5
TAP	26	0	7
TAP	26	96	0
TAP	26	96	4
TAP	26	192	1
TAP	26	192	3
TAP	26	288	2
TAP	26	336	0
TAP	27	48	5
TAP	27	96	7
STR	27	192	4
SI_	27	192	4	96	48	1
STR	27	192	5
SI_	27	192	5	96	48	1
TAP	28	0	0
TAP	28	0	2
TAP	28	96	3
TAP	28	96	7
TAP	28	192	4
TAP	28	192	6
TAP	28	288	5
TAP	28	336	7
TAP	29	48	2
TAP	29	96	0
BRK	29	192	1
BRK	29	192	6
BRK	29	240	1
BRK	29	240	6
TAP	30	0	2
TAP	30	0	3
TAP	30	96	1
TAP	30	96	4
TAP	30	192	0
TAP	30	192	5
TAP	30	288	6
TAP	30	336	7
TAP	31	48	1
TAP	31	96	0
STR	31	192	2
SCL	31	192	2	96	48	7
STR	31	192	7
SCL	31	192	7	96	48	4
TAP	32	0	4
TAP	32	0	5
TAP	32	96	3
TAP	32	96	6
TAP	32	192	2
TAP	32	192	7
TAP	32	288	1
TAP	32	336	0
TAP	33	48	6
TAP	33	96	7
STR	33	192	0
SCR	33	192	0	96	48	3
STR	33	192	5
SCR	33	192	5	96	48	0
TAP	34	0	1
TAP	34	0	2
TAP	34	96	4
TAP	34	96	5
TAP	34	192	3
STR	34	240	7
SSR	34	240	7	96	96	3
TAP	35	192	3
TAP	35	192	4
TAP	35	288	0
TAP	35	288	7
TAP	36	0	5
TAP	36	0	6
TAP	36	96	2
TAP	36	96	3
TAP	36	192	4
STR	36	240	0
SSL	36	240	0	96	96	4
TAP	37	192	0
TAP	37	240	7
TAP	37	336	1
TAP	37	336	6
TAP	38	48	6
TAP	38	96	5
TAP	38	144	4
TAP	38	192	3
TAP	38	240	2
TAP	38	288	1
STR	38	336	0
SCL	38	336	0	96	72	4
TAP	39	192	3
TAP	39	240	4
TAP	39	336	2
TAP	39	336	5
STR	40	48	3
SI_	40	48	3	96	48	0
STR	40	96	4
SI_	40	96	4	96	48	7
TAP	40	288	1
TAP	40	288	6
STR	40	336	0
SI_	40	336	0	96	48	4
STR	40	336	7
SI_	40	336	7	96	48	3
TAP	41	192	6
TAP	41	240	1
TAP	41	336	0
TAP	41	336	7
TAP	42	48	1
TAP	42	96	2
TAP	42	144	6
TAP	42	192	5
STR	42	240	1
SI_	42	240	1	96	48	5
STR	42	336	0
SI_	42	336	0	96	48	4
STR	43	48	7
SI_	43	48	7	96	48	3
STR	43	144	6
SI_	43	144	6	96	48	2
STR	43	240	5
SI_	43	240	5	96	48	1
STR	43	336	4
SI_	43	336	4	96	48	7
STR	44	48	0
SCR	44	48	0	96	144	6
TAP	44	96	0
STR	44	336	0
SI_	44	336	0	96	48	4
STR	44	336	1
SI_	44	336	1	96	48	4
STR	45	144	6
SI_	45	144	6	96	48	3
STR	45	144	7
SI_	45	144	7	96	48	3
HLD	45	336	1	240
TAP	46	48	0
TAP	46	96	7
TAP	46	144	6
HLD	46	192	5	144
TAP	46	288	1
STR	46	336	2
SI_	46	336	2	96	48	7
BRK	47	48	5
TAP	47	192	3
TAP	47	240	4
HLD	47	336	6	192
TAP	48	48	7
TAP	48	96	0
TAP	48	144	1
HLD	48	192	2	144
TAP	48	240	3
TAP	48	288	4
STR	48	336	5
SI_	48	336	5	96	48	0
BRK	49	48	2
TAP	49	192	0
TAP	49	240	7
HLD	49	336	1	96
TAP	50	48	2
TAP	50	96	3
TAP	50	144	4
TAP	50	192	5
HLD	50	240	6	96
HLD	50	336	2	96
TAP	51	48	1
TAP	51	96	0
TAP	51	144	7
TAP	51	192	6
TAP	51	240	5
TAP	51	336	0
TAP	51	336	7
TAP	52	96	1
TAP	52	96	6
TAP	52	144	0
TAP	52	144	7
STR	52	240	0
SI_	52	240	0	96	48	3
STR	52	240	7
SI_	52	240	7	96	48	4
BRK	52	336	0
BRK	52	336	7
TAP	53	192	3
TAP	53	192	4
TAP	53	240	3
TAP	53	240	4
HLD	53	336	1	529
HLD	54	336	6	144
BRK	55	192	0
BRK	55	192	7
BRK	55	240	0
BRK	55	240	7
TAP	55	336	1
TAP	55	336	6
TAP	56	48	0
TAP	56	48	7
TAP	56	96	1
TAP	56	96	6
TAP	56	192	3
TAP	56	192	4
TAP	56	288	6
TAP	56	288	7
STR	56	336	0
SI_	56	336	0	96	48	4
STR	56	336	1
SI_	56	336	1	96	48	4
TAP	57	192	7
TAP	57	240	0
TAP	57	336	2
TAP	57	336	5
TAP	58	48	0
TAP	58	96	7
TAP	58	144	3
TAP	58	192	4
TAP	58	240	1
STR	58	240	6
SI_	58	240	6	96	48	2
STR	58	336	7
SI_	58	336	7	96	48	3
STR	59	48	0
SI_	59	48	0	96	48	4
STR	59	144	1
SI_	59	144	1	96	48	5
STR	59	240	2
SI_	59	240	2	96	48	6
STR	59	336	3
SI_	59	336	3	96	48	0
STR	60	48	7
SCL	60	48	7	96	144	1
TAP	60	96	7
STR	60	336	6
SI_	60	336	6	96	48	2
STR	60	336	7
SI_	60	336	7	96	48	2
STR	61	144	0
SI_	61	144	0	96	48	5
STR	61	144	1
SI_	61	144	1	96	48	5
HLD	61	336	6	240
TAP	62	48	7
TAP	62	96	0
TAP	62	144	1
HLD	62	192	2	144
TAP	62	288	6
STR	62	336	5
SI_	62	336	5	96	48	0
BRK	63	48	2
TAP	63	192	4
TAP	63	240	3
HLD	63	336	1	192
TAP	64	48	0
TAP	64	96	7
TAP	64	144	6
HLD	64	192	5	96
TAP	64	240	4
TAP	64	288	3
STR	64	336	2
SI_	64	336	2	96	48	7
BRK	65	48	5
TAP	65	192	7
TAP	65	240	0
HLD	65	336	1	96
HLD	66	48	0	48
HLD	66	96	3	48
HLD	66	144	7	48
HLD	66	192	4	48
HLD	66	240	6	96
HLD	66	336	5	96
HLD	67	48	4	48
HLD	67	96	7	48
HLD	67	144	3	48
HLD	67	192	0	48
TAP	67	240	2
TAP	67	336	1
TAP	67	336	6
TAP	68	96	0
TAP	68	96	7
TAP	68	144	1
TAP	68	144	6
STR	68	240	2
SI_	68	240	2	96	48	7
STR	68	240	3
SI_	68	240	3	96	48	7
TAP	69	144	6
TAP	69	192	3
TAP	69	240	6
STR	69	336	4
SUR	69	336	4	96	192	1
STR	69	336	5
SCR	69	336	5	96	192	1
TAP	71	0	6
TAP	71	48	7
TAP	71	96	0
TAP	71	144	1
TAP	71	192	2
TAP	71	240	3
TAP	71	288	4
HLD	71	336	5	96
HLD	72	48	0	48
HLD	72	96	4	48
HLD	72	144	7	48
HLD	72	192	3	96
HLD	72	288	2	48
HLD	72	336	1	96
TAP	73	48	0
TAP	73	144	7
TAP	73	192	6
STR	73	240	5
SI_	73	240	5	96	48	1
STR	74	48	0
SCR	74	48	0	96	48	4
TAP	74	96	7
TAP	74	144	6
STR	74	192	5
SUR	74	192	5	96	72	2
STR	74	336	1
SCL	74	336	1	96	48	6
TAP	75	192	6
STR	75	240	6
SI_	75	240	6	96	96	2
TAP	76	48	7
TAP	76	96	5
TAP	76	144	0
TAP	76	192	4
STR	76	240	1
SI_	76	240	1	96	48	5
TAP	76	288	3
STR	76	336	2
SI_	76	336	2	96	48	6
STR	77	48	3
SI_	77	48	3	96	48	7
STR	77	144	4
SI_	77	144	4	96	48	7
STR	77	240	0
SI_	77	240	0	96	48	4
STR	77	336	7
SCL	77	336	7	96	48	4
TAP	78	48	3
TAP	78	96	3
STR	78	336	4
SUR	78	336	4	96	48	1
STR	78	336	5
SCR	78	336	5	96	48	0
STR	79	144	0
SUR	79	144	0	96	48	5
STR	79	144	1
SCR	79	144	1	96	48	4
STR	79	336	4
SI_	79	336	4	96	48	1
STR	80	96	0
SI_	80	96	0	96	48	5
STR	80	336	1
SCL	80	336	1	96	48	6
STR	81	96	5
SCL	81	96	5	96	48	2
STR	81	336	6
SUL	81	336	6	96	48	1
STR	82	96	2
SCR	82	96	2	96	48	5
STR	82	240	0
SI_	82	240	0	96	48	4
STR	82	336	0
SCR	82	336	0	96	48	3
STR	83	48	0
SCL	83	48	0	96	48	5
STR	83	144	0
SI_	83	144	0	96	48	4
HLD	83	336	2	288
TAP	84	48	1
TAP	84	96	0
TAP	84	144	7
TAP	84	192	6
HLD	84	240	5	96
HLD	84	336	1	288
TAP	85	48	2
TAP	85	96	3
TAP	85	144	4
TAP	85	192	5
TAP	85	240	6
HLD	85	336	6	144
TAP	86	48	7
HLD	86	96	0	144
TAP	86	192	1
TAP	86	240	2
HLD	86	336	0	144
HLD	86	336	7	144
TAP	87	192	6
STR	87	240	1
SCL	87	240	1	96	1296	2
TAP	91	288	7
BRK	91	336	0

T_REC_TAP	242
T_REC_BRK	15
T_REC_XTP	0
T_REC_HLD	52
T_REC_XHO	0
T_REC_STR	91
T_REC_BST	0
T_REC_XST	0
T_REC_TTP	0
T_REC_THO	0
T_REC_SLD	91
T_REC_ALL	491
T_NUM_TAP	333
T_NUM_BRK	15
T_NUM_HLD	52
T_NUM_SLD	91
T_NUM_ALL	491
T_JUDGE_TAP	348
T_JUDGE_HLD	155
T_JUDGE_SLD	91
T_JUDGE_ALL	594
TTM_EACHPAIRS	65
TTM_SCR_TAP	166500
TTM_SCR_BRK	39000
TTM_SCR_HLD	52000
TTM_SCR_SLD	136500
TTM_SCR_ALL	394000
TTM_SCR_S	380750
TTM_SCR_SS	392500
TTM_RAT_ACV	10038

