VERSION	0.00.00	1.03.00
FES_MODE	0
BPM_DEF	186.000	186.000	186.000	186.000
MET_DEF	4	4
RESOLUTION	384
CLK_DEF	384
COMPATIBLE_CODE	MA2

BPM	0	0	186.000
MET	0	0	4	4

TAP	5	192	2
STR	5	240	2
SI_	5	240	2	96	96	6
TAP	6	192	5
STR	6	240	5
SI_	6	240	5	96	96	1
TAP	7	192	0
TAP	7	240	0
HLD	7	336	7	144
TAP	8	96	6
HLD	8	144	6	96
HLD	8	240	5	96
TAP	8	336	4
TAP	9	192	5
STR	9	240	5
SI_	9	240	5	96	96	1
TAP	10	192	2
STR	10	240	2
SI_	10	240	2	96	96	6
TAP	11	192	7
TAP	11	240	7
HLD	11	336	0	144
TAP	12	96	1
HLD	12	144	1	96
HLD	12	240	2	96
TAP	12	336	3
TAP	13	192	4
TAP	13	240	4
HLD	13	336	6	144
TAP	14	96	7
TAP	14	192	3
TAP	14	240	3
HLD	14	336	1	144
TAP	15	96	0
TAP	15	192	4
TAP	15	240	4
HLD	15	336	6	144
TAP	16	96	7
STR	16	144	7
SI_	16	144	7	96	48	2
STR	16	240	6
SI_	16	240	6	96	48	3
TAP	17	192	0
TAP	17	240	0
HLD	17	336	1	144
TAP	18	96	2
TAP	18	192	7
TAP	18	240	7
HLD	18	336	6	144
TAP	19	96	5
TAP	19	192	0
TAP	19	240	0
HLD	19	336	1	144
TAP	20	96	3
STR	20	144	3
SI_	20	144	3	96	48	6
STR	20	240	2
SI_	20	240	2	96	48	7
BRK	21	96	6
HLD	21	192	5	192
HLD	22	0	0	144
TAP	22	144	1
TAP	22	192	1
TAP	22	336	2
TAP	23	48	5
TAP	23	96	4
TAP	23	192	3
TAP	23	192	6
HLD	24	0	7	144
TAP	24	144	6
TAP	24	192	6
TAP	24	336	5
TAP	25	48	2
TAP	25	96	3
TAP	25	192	1
TAP	25	192	4
HLD	26	0	3	144
TAP	26	144	2
TAP	26	192	2
TAP	26	336	1
TAP	27	48	6
TAP	27	96	7
TAP	27	192	0
TAP	27	192	5
HLD	28	0	4	144
TAP	28	144	5
TAP	28	192	5
HLD	28	336	6	144
HLD	29	96	5	96
TAP	29	192	4
TAP	29	240	4
HLD	30	0	1	144
TAP	30	144	0
TAP	30	192	0
HLD	30	336	5	96
TAP	31	48	4
TAP	31	96	4
HLD	31	192	2	96
TAP	31	288	3
HLD	32	0	6	144
TAP	32	144	7
TAP	32	192	7
HLD	32	336	2	96
TAP	33	48	3
TAP	33	96	3
HLD	33	192	5	96
TAP	33	288	4
TAP	34	0	2
TAP	34	96	2
TAP	34	96	3
TAP	34	192	6
TAP	34	240	4
TAP	34	288	4
TAP	34	288	5
TAP	35	0	5
TAP	35	96	4
TAP	35	96	5
TAP	35	192	1
TAP	35	240	3
TAP	35	288	2
TAP	35	288	3
TAP	36	0	2
TAP	36	96	2
TAP	36	96	3
STR	36	192	5
SV_	36	192	5	96	96	2
TAP	36	240	5
BRK	37	48	1
BRK	37	96	1
TAP	37	192	6
TAP	37	240	6
TAP	37	336	0
TAP	37	336	5
TAP	38	48	1
TAP	38	96	1
TAP	38	192	2
STR	38	192	7
SUL	38	192	7	96	192	4
TAP	39	192	1
TAP	39	240	1
TAP	39	336	2
TAP	39	336	7
TAP	40	48	6
TAP	40	96	6
STR	40	192	0
SSL	40	192	0	96	192	4
TAP	40	192	5
TAP	41	192	6
TAP	41	240	6
TAP	41	336	0
TAP	41	336	5
TAP	42	48	1
TAP	42	96	1
TAP	42	192	2
HLD	42	240	2	96
HLD	42	336	3	96
HLD	43	48	4	96
HLD	43	144	5	96
HLD	43	240	4	96
HLD	43	336	3	96
TAP	44	48	2
TAP	44	96	2
TAP	44	192	1
TAP	44	240	1
TAP	44	288	0
BRK	44	336	0
TAP	45	48	4
TAP	45	48	5
BRK	45	144	7
TAP	45	240	2
TAP	45	240	3
TAP	45	336	2
TAP	45	336	7
TAP	46	48	6
TAP	46	96	7
STR	46	192	0
SUL	46	192	0	96	96	2
TAP	46	192	5
TAP	47	192	6
TAP	47	240	7
TAP	47	336	0
TAP	47	336	5
TAP	48	48	1
TAP	48	96	0
TAP	48	192	2
STR	48	192	7
SUR	48	192	7	96	96	5
TAP	49	192	1
TAP	49	240	0
TAP	49	336	2
TAP	49	336	7
TAP	50	48	5
TAP	50	96	4
TAP	50	192	2
TAP	50	240	3
TAP	50	336	1
TAP	50	336	4
TAP	51	48	6
TAP	51	96	7
TAP	51	192	5
TAP	51	240	4
TAP	51	336	3
TAP	51	336	6
TAP	52	96	1
HLD	52	144	1	96
STR	52	240	2
SI_	52	240	2	96	96	6
TAP	53	192	7
TAP	53	240	7
STR	53	336	6
SUL	53	336	6	96	288	3
TAP	55	192	1
TAP	55	192	6
BRK	55	240	1
BRK	55	240	6
HLD	55	336	5	96
TAP	56	48	4
TAP	56	96	4
HLD	56	192	1	96
TAP	56	288	0
TAP	56	336	0
TAP	57	48	4
TAP	57	48	6
TAP	57	192	2
TAP	57	240	3
TAP	57	336	1
TAP	57	336	4
TAP	58	48	5
TAP	58	96	4
TAP	58	192	6
HLD	58	240	6	96
HLD	58	336	7	96
HLD	59	48	0	96
HLD	59	144	1	96
HLD	59	240	0	96
HLD	59	336	7	96
TAP	60	48	6
TAP	60	96	6
TAP	60	192	1
TAP	60	240	0
TAP	60	288	1
BRK	60	336	2
BRK	60	336	7
TAP	61	48	1
TAP	61	48	3
BRK	61	144	0
BRK	61	144	5
TAP	61	240	4
TAP	61	240	6
HLD	61	336	1	96
TAP	62	48	2
TAP	62	96	3
HLD	62	192	6	96
TAP	62	288	5
STR	62	336	4
SI_	62	336	4	96	48	1
TAP	63	192	7
TAP	63	241	7
HLD	63	336	6	96
TAP	64	48	5
TAP	64	96	4
HLD	64	192	1	96
TAP	64	288	2
STR	64	336	3
SI_	64	336	3	96	48	6
TAP	65	192	0
TAP	65	192	7
TAP	65	240	0
TAP	65	240	7
TAP	65	336	1
TAP	65	336	6
TAP	66	48	0
TAP	66	96	0
TAP	66	144	1
TAP	66	192	2
TAP	66	240	3
TAP	66	336	0
TAP	66	336	1
TAP	67	48	7
TAP	67	96	7
TAP	67	144	6
TAP	67	192	5
TAP	67	240	4
HLD	67	336	1	144
TAP	68	96	2
TAP	68	144	2
HLD	68	240	6	96
BRK	68	336	7
TAP	69	144	1
TAP	69	192	0
STR	69	240	7
SSR	69	240	7	96	288	3
TAP	71	336	0
TAP	71	336	4
TAP	72	48	2
TAP	72	96	3
TAP	72	192	5
TAP	72	240	4
TAP	72	336	3
TAP	72	336	7
TAP	73	48	2
TAP	73	48	3
TAP	73	144	4
TAP	73	192	5
TAP	73	240	6
TAP	73	336	3
TAP	73	336	7
TAP	74	48	5
TAP	74	96	4
TAP	74	192	2
TAP	74	240	3
TAP	74	336	0
TAP	74	336	4
TAP	75	48	4
TAP	75	48	5
TAP	75	144	3
TAP	75	192	2
TAP	75	240	1
HLD	75	336	7	96
TAP	76	48	5
HLD	76	96	5	96
TAP	76	192	3
HLD	76	240	3	96
TAP	76	336	0
TAP	77	48	0
TAP	77	48	1
TAP	77	144	4
TAP	77	144	5
TAP	77	240	6
TAP	77	240	7
TAP	77	336	2
TAP	77	336	3
TAP	78	48	1
TAP	78	96	1
TAP	78	192	5
TAP	78	240	4
TAP	78	240	5
HLD	78	336	7	96
TAP	79	48	6
TAP	79	96	6
TAP	79	144	4
TAP	79	192	4
TAP	79	240	2
TAP	79	288	2
BRK	79	336	0
TAP	80	48	2
TAP	80	96	2
TAP	80	96	3
TAP	80	192	6
TAP	80	240	6
TAP	80	240	7
TAP	80	336	3
TAP	80	336	7
TAP	81	48	5
TAP	81	96	4
TAP	81	96	5
TAP	81	192	1
TAP	81	240	0
TAP	81	240	1
TAP	81	336	0
TAP	81	336	4
TAP	82	48	0
TAP	82	48	2
TAP	82	96	0
TAP	82	96	2
TAP	82	192	5
TAP	82	192	7
TAP	82	240	5
TAP	82	240	7
STR	82	336	1
SI_	82	336	1	96	48	4
STR	83	48	7
SI_	83	48	7	96	48	3
STR	83	144	0
SI_	83	144	0	96	48	4
BRK	83	240	6
HLD	83	336	2	240
TAP	84	48	7
TAP	84	96	7
TAP	84	192	3
TAP	84	240	4
HLD	84	336	5	240
TAP	85	48	0
TAP	85	96	0
TAP	85	192	4
TAP	85	240	3
TAP	85	336	2
TAP	85	336	5
TAP	86	48	6
TAP	86	96	4
TAP	86	192	1
TAP	86	240	3
HLD	86	336	7	240
TAP	87	192	0
TAP	87	240	0
HLD	87	336	1	1392
HLD	87	336	6	1392
TAP	91	288	0
TAP	91	288	7
TAP	91	336	0
TAP	91	336	7

T_REC_TAP	290
T_REC_BRK	14
T_REC_XTP	0
T_REC_HLD	55
T_REC_XHO	0
T_REC_STR	21
T_REC_BST	0
T_REC_XST	0
T_REC_TTP	0
T_REC_THO	0
T_REC_SLD	21
T_REC_ALL	401
T_NUM_TAP	311
T_NUM_BRK	14
T_NUM_HLD	55
T_NUM_SLD	21
T_NUM_ALL	401
T_JUDGE_TAP	325
T_JUDGE_HLD	191
T_JUDGE_SLD	21
T_JUDGE_ALL	537
TTM_EACHPAIRS	59
TTM_SCR_TAP	155500
TTM_SCR_BRK	36400
TTM_SCR_HLD	55000
TTM_SCR_SLD	31500
TTM_SCR_ALL	278400
TTM_SCR_S	268700
TTM_SCR_SS	277000
TTM_RAT_ACV	10050

