VERSION	0.00.00	1.03.00
FES_MODE	0
BPM_DEF	186.000	186.000	186.000	186.000
MET_DEF	4	4
RESOLUTION	384
CLK_DEF	384
COMPATIBLE_CODE	MA2

BPM	0	0	186.000
MET	0	0	4	4

TAP	2	0	0
TAP	2	192	2
TAP	2	192	3
TAP	3	0	7
TAP	3	192	4
TAP	3	192	5
TAP	4	0	2
TAP	4	192	0
TAP	4	192	1
TAP	5	0	5
TAP	5	192	6
TAP	5	192	7
HLD	5	336	0	384
HLD	6	336	7	384
HLD	7	336	1	384
TAP	8	336	6
TAP	9	192	0
TAP	9	192	7
TAP	9	336	0
TAP	9	336	7
TAP	10	192	1
TAP	10	336	1
TAP	11	192	6
TAP	11	336	6
HLD	12	192	2	144
HLD	12	192	5	144
TAP	14	0	3
TAP	14	96	3
TAP	14	192	3
TAP	15	0	4
TAP	15	96	4
TAP	15	192	4
TAP	16	0	3
TAP	16	96	4
TAP	16	192	2
TAP	16	288	5
TAP	17	0	1
TAP	17	96	6
TAP	17	192	0
TAP	17	288	7
TAP	18	0	0
TAP	18	96	0
TAP	18	192	0
TAP	19	0	7
TAP	19	96	7
TAP	19	192	7
TAP	20	0	0
TAP	20	96	1
TAP	20	192	2
TAP	20	288	3
TAP	21	0	7
TAP	21	96	6
TAP	21	192	5
TAP	21	288	4
STR	22	0	3
SI_	22	0	3	96	192	0
STR	23	0	7
SI_	23	0	7	96	192	4
STR	24	0	1
SI_	24	0	1	96	192	6
STR	25	0	5
SI_	25	0	5	96	192	2
TAP	26	0	0
TAP	26	96	2
TAP	26	192	0
TAP	27	0	7
TAP	27	96	5
TAP	27	192	7
TAP	28	0	1
TAP	28	96	6
TAP	28	192	0
TAP	28	288	7
TAP	29	0	1
TAP	29	96	6
BRK	29	192	0
BRK	29	192	7
HLD	30	0	1	192
TAP	30	192	2
HLD	31	0	6	192
TAP	31	192	5
HLD	32	0	1	192
TAP	32	192	7
HLD	33	0	6	192
TAP	33	192	0
TAP	34	0	7
TAP	34	96	6
TAP	34	192	5
TAP	34	288	4
TAP	35	0	3
TAP	35	96	2
TAP	35	192	1
TAP	35	288	0
TAP	36	0	5
TAP	36	96	4
TAP	36	192	3
TAP	36	192	4
BRK	36	336	0
BRK	36	336	7
TAP	38	0	2
TAP	38	96	2
TAP	38	96	3
TAP	38	288	2
TAP	38	288	3
TAP	39	96	4
TAP	39	96	5
TAP	39	288	4
TAP	39	288	5
TAP	40	96	2
TAP	40	96	3
TAP	40	288	4
TAP	40	288	5
TAP	41	96	2
TAP	41	96	3
TAP	41	192	3
TAP	41	192	4
TAP	41	288	4
TAP	41	288	5
TAP	42	96	0
TAP	42	96	1
TAP	42	288	0
TAP	42	288	1
TAP	43	96	6
TAP	43	96	7
TAP	43	288	6
TAP	43	288	7
HLD	44	96	0	96
HLD	44	96	7	96
HLD	44	336	2	96
TAP	45	48	3
HLD	45	144	5	96
TAP	45	240	4
TAP	46	0	2
TAP	46	96	2
TAP	46	96	3
TAP	46	288	0
TAP	46	288	1
TAP	47	96	4
TAP	47	96	5
TAP	47	288	6
TAP	47	288	7
TAP	48	96	0
TAP	48	96	7
TAP	48	288	1
TAP	48	288	6
TAP	49	96	2
TAP	49	96	5
TAP	49	192	1
TAP	49	192	6
TAP	49	288	0
TAP	49	288	7
TAP	50	96	1
TAP	50	192	2
TAP	50	288	3
TAP	51	96	6
TAP	51	192	5
TAP	51	288	4
STR	52	0	3
SCL	52	0	3	96	384	7
HLD	53	336	0	384
HLD	54	336	7	240
TAP	56	0	1
TAP	56	96	3
TAP	56	192	1
TAP	56	288	3
TAP	57	0	6
TAP	57	96	4
TAP	57	192	6
TAP	57	288	4
TAP	58	0	2
TAP	58	96	1
TAP	58	192	0
TAP	58	288	7
TAP	59	0	6
TAP	59	96	5
TAP	59	192	4
TAP	59	288	3
HLD	60	0	1	192
HLD	60	0	6	192
HLD	60	336	2	96
TAP	61	48	3
HLD	61	144	5	96
TAP	61	240	4
TAP	62	0	2
TAP	62	96	3
TAP	62	192	2
TAP	62	288	2
TAP	62	288	3
TAP	63	0	5
TAP	63	96	4
TAP	63	192	5
TAP	63	288	4
TAP	63	288	5
TAP	64	0	3
TAP	64	96	4
TAP	64	192	3
TAP	64	288	3
TAP	64	288	4
TAP	65	0	0
TAP	65	96	7
TAP	65	192	0
TAP	65	192	7
STR	66	0	0
SV_	66	0	0	96	192	3
STR	67	0	7
SV_	67	0	7	96	192	4
TAP	68	0	2
TAP	68	96	5
TAP	68	192	1
TAP	68	288	6
TAP	69	0	0
TAP	69	0	7
STR	70	0	2
SCL	70	0	2	96	576	5
TAP	72	0	2
TAP	72	96	2
TAP	72	96	3
TAP	72	288	2
TAP	72	288	3
TAP	73	96	4
TAP	73	96	5
TAP	73	288	4
TAP	73	288	5
TAP	74	96	6
TAP	74	96	7
TAP	74	288	0
TAP	74	288	1
TAP	75	96	0
TAP	75	96	1
TAP	75	192	0
TAP	75	192	7
TAP	75	288	6
TAP	75	288	7
TAP	76	96	4
TAP	76	96	5
TAP	76	288	2
TAP	76	288	3
TAP	77	96	4
TAP	77	96	5
TAP	77	288	2
TAP	77	288	3
HLD	78	96	3	96
HLD	78	96	4	96
TAP	78	336	0
BRK	79	48	0
TAP	79	144	7
BRK	79	240	7
TAP	80	0	1
TAP	80	96	0
TAP	80	96	1
TAP	80	288	6
TAP	80	288	7
TAP	81	96	4
TAP	81	96	5
TAP	81	288	2
TAP	81	288	3
TAP	82	96	4
TAP	82	96	5
TAP	82	288	2
TAP	82	288	3
TAP	83	96	4
TAP	83	96	5
TAP	83	192	3
TAP	83	192	4
TAP	83	288	2
TAP	83	288	3
HLD	84	0	2	192
TAP	84	192	3
HLD	85	0	5	192
TAP	85	192	4
HLD	86	0	0	336
HLD	86	0	7	336
STR	87	336	0
SCR	87	336	0	96	1296	7
TAP	91	288	0
TAP	91	336	0

T_REC_TAP	226
T_REC_BRK	6
T_REC_XTP	0
T_REC_HLD	25
T_REC_XHO	0
T_REC_STR	9
T_REC_BST	0
T_REC_XST	0
T_REC_TTP	0
T_REC_THO	0
T_REC_SLD	9
T_REC_ALL	275
T_NUM_TAP	235
T_NUM_BRK	6
T_NUM_HLD	25
T_NUM_SLD	9
T_NUM_ALL	275
T_JUDGE_TAP	241
T_JUDGE_HLD	105
T_JUDGE_SLD	9
T_JUDGE_ALL	355
TTM_EACHPAIRS	63
TTM_SCR_TAP	117500
TTM_SCR_BRK	15600
TTM_SCR_HLD	25000
TTM_SCR_SLD	13500
TTM_SCR_ALL	171600
TTM_SCR_S	165900
TTM_SCR_SS	171000
TTM_RAT_ACV	10035

