VERSION	0.00.00	1.03.00
FES_MODE	0
BPM_DEF	186.000	186.000	186.000	186.000
MET_DEF	4	4
RESOLUTION	384
CLK_DEF	384
COMPATIBLE_CODE	MA2

BPM	0	0	186.000
MET	0	0	4	4

TAP	5	192	7
TAP	6	0	0
TAP	6	192	1
TAP	7	0	2
TAP	7	192	3
TAP	8	0	4
TAP	8	192	5
TAP	8	192	6
TAP	9	192	0
TAP	10	0	7
TAP	10	192	6
TAP	11	0	5
TAP	11	192	4
TAP	12	0	3
TAP	12	192	2
TAP	12	192	3
TAP	14	0	2
TAP	14	96	2
TAP	14	192	2
TAP	15	0	3
TAP	15	96	3
TAP	15	192	3
TAP	16	0	4
TAP	16	96	4
TAP	16	192	4
TAP	17	0	5
TAP	17	96	5
TAP	17	192	5
TAP	18	0	4
TAP	18	96	4
TAP	18	192	4
TAP	19	0	3
TAP	19	96	3
TAP	19	192	3
TAP	20	0	2
TAP	20	96	2
TAP	20	192	2
TAP	21	0	3
TAP	21	0	4
STR	22	0	4
SI_	22	0	4	96	288	7
STR	24	0	0
SI_	24	0	0	96	288	3
STR	26	0	5
SI_	26	0	5	96	288	2
STR	28	0	1
SI_	28	0	1	96	288	6
HLD	30	0	0	576
HLD	31	0	7	192
HLD	32	0	7	576
HLD	33	0	0	192
TAP	34	0	6
TAP	34	96	6
TAP	34	192	7
TAP	35	0	1
TAP	35	96	1
TAP	35	192	0
TAP	36	0	7
TAP	36	96	7
STR	36	192	0
SI_	36	192	0	96	288	4
TAP	38	96	5
TAP	38	288	4
TAP	38	288	5
TAP	39	96	2
TAP	39	288	2
TAP	39	288	3
TAP	40	96	6
TAP	40	288	4
TAP	40	288	5
TAP	41	96	1
TAP	41	288	2
TAP	41	288	3
TAP	42	96	5
TAP	42	288	4
TAP	42	288	5
TAP	43	96	2
TAP	43	288	2
TAP	43	288	3
TAP	44	96	6
STR	44	288	5
SI_	44	288	5	96	288	1
TAP	46	96	2
TAP	46	288	2
TAP	46	288	3
TAP	47	96	5
TAP	47	288	4
TAP	47	288	5
TAP	48	96	1
TAP	48	288	2
TAP	48	288	3
TAP	49	96	6
TAP	49	288	4
TAP	49	288	5
TAP	50	96	2
TAP	50	288	2
TAP	50	288	3
TAP	51	96	5
TAP	51	288	4
TAP	51	288	5
TAP	52	96	2
TAP	52	96	3
STR	52	288	3
SI_	52	288	3	96	288	0
STR	52	288	4
SI_	52	288	4	96	288	7
TAP	55	192	1
TAP	55	192	6
TAP	56	96	1
TAP	56	192	1
TAP	56	288	1
TAP	57	96	0
TAP	57	192	0
TAP	57	288	0
TAP	58	96	7
TAP	58	192	7
TAP	58	288	7
TAP	59	96	6
TAP	59	192	6
TAP	59	288	6
STR	60	96	7
SI_	60	96	7	96	288	3
TAP	62	96	1
TAP	62	192	1
TAP	62	288	0
TAP	62	288	1
TAP	63	96	6
TAP	63	192	6
TAP	63	288	6
TAP	63	288	7
TAP	64	96	0
TAP	64	192	1
TAP	64	288	0
TAP	64	288	1
TAP	65	96	7
TAP	65	192	6
TAP	65	288	6
TAP	65	288	7
TAP	66	96	0
TAP	66	96	1
TAP	66	192	0
TAP	66	192	1
TAP	66	288	0
TAP	66	288	1
TAP	67	96	6
TAP	67	96	7
TAP	67	192	6
TAP	67	192	7
TAP	67	288	6
TAP	67	288	7
TAP	68	96	0
TAP	68	96	7
TAP	68	192	0
TAP	68	192	7
TAP	68	288	0
TAP	68	288	7
BRK	69	0	0
BRK	69	0	7
TAP	72	96	4
TAP	72	96	5
TAP	72	288	2
TAP	72	288	3
TAP	73	96	4
TAP	73	96	5
TAP	73	288	2
TAP	73	288	3
TAP	74	96	0
TAP	74	96	1
TAP	74	288	6
TAP	74	288	7
TAP	75	96	1
TAP	75	192	0
TAP	75	288	0
TAP	75	288	1
TAP	76	96	0
TAP	76	96	6
TAP	76	288	0
TAP	76	288	6
TAP	77	96	1
TAP	77	96	7
TAP	77	288	1
TAP	77	288	7
TAP	78	96	0
TAP	78	96	7
TAP	78	288	1
TAP	78	288	6
TAP	79	96	2
TAP	79	96	5
TAP	79	288	3
TAP	79	288	4
TAP	80	96	2
TAP	80	96	4
TAP	80	288	2
TAP	80	288	4
TAP	81	96	3
TAP	81	96	5
TAP	81	288	3
TAP	81	288	5
TAP	82	96	2
TAP	82	96	4
TAP	82	288	3
TAP	82	288	5
TAP	83	96	5
TAP	83	192	5
TAP	83	288	4
TAP	83	288	5
TAP	84	96	6
TAP	84	96	7
TAP	84	192	6
TAP	84	192	7
TAP	84	288	6
TAP	84	288	7
TAP	85	96	0
TAP	85	96	1
TAP	85	192	0
TAP	85	192	1
TAP	85	288	0
TAP	85	288	1
TAP	86	96	1
TAP	86	96	6
TAP	86	192	1
TAP	86	192	6
TAP	86	288	1
TAP	86	288	6
STR	87	192	0
SI_	87	192	0	96	288	3
STR	87	192	7
SI_	87	192	7	96	288	4

T_REC_TAP	200
T_REC_BRK	2
T_REC_XTP	0
T_REC_HLD	4
T_REC_XHO	0
T_REC_STR	11
T_REC_BST	0
T_REC_XST	0
T_REC_TTP	0
T_REC_THO	0
T_REC_SLD	11
T_REC_ALL	228
T_NUM_TAP	211
T_NUM_BRK	2
T_NUM_HLD	4
T_NUM_SLD	11
T_NUM_ALL	228
T_JUDGE_TAP	213
T_JUDGE_HLD	32
T_JUDGE_SLD	11
T_JUDGE_ALL	256
TTM_EACHPAIRS	64
TTM_SCR_TAP	105500
TTM_SCR_BRK	5200
TTM_SCR_HLD	4000
TTM_SCR_SLD	16500
TTM_SCR_ALL	131200
TTM_SCR_S	127100
TTM_SCR_SS	131000
TTM_RAT_ACV	10015

