VERSION	0.00.00	1.03.00
FES_MODE	0
BPM_DEF	205.000	205.000	205.000	205.000
MET_DEF	4	4
RESOLUTION	384
CLK_DEF	384
COMPATIBLE_CODE	MA2

BPM	0	0	205.000
MET	0	0	4	4

TAP	5	336	1
TAP	5	336	6
TAP	6	48	3
TAP	6	48	5
TAP	6	96	3
TAP	6	96	5
TAP	6	192	2
TAP	6	192	4
TAP	6	240	2
TAP	6	240	4
TAP	6	336	1
TAP	6	336	6
TAP	7	48	2
TAP	7	48	4
TAP	7	96	2
TAP	7	96	4
TAP	7	192	3
TAP	7	192	5
TAP	7	240	3
TAP	7	240	5
TAP	7	336	1
TAP	7	336	6
TAP	8	48	5
TAP	8	48	7
TAP	8	96	5
TAP	8	96	7
TAP	8	192	0
TAP	8	192	2
TAP	8	240	0
TAP	8	240	2
TAP	8	336	1
TAP	8	336	6
TAP	9	48	0
TAP	9	48	2
TAP	9	96	0
TAP	9	96	2
TAP	9	192	5
TAP	9	192	7
TAP	9	240	5
TAP	9	240	7
TAP	9	336	1
TAP	9	336	6
TAP	10	48	4
TAP	10	48	6
TAP	10	96	4
TAP	10	96	6
TAP	10	192	1
TAP	10	192	3
TAP	10	240	1
TAP	10	240	3
TAP	10	336	2
TAP	10	336	5
TAP	11	48	1
TAP	11	48	3
TAP	11	96	1
TAP	11	96	3
TAP	11	192	4
TAP	11	192	6
TAP	11	240	4
TAP	11	240	6
TAP	11	336	2
TAP	11	336	5
TAP	12	48	0
TAP	12	48	7
TAP	12	96	1
TAP	12	96	6
TAP	12	192	3
TAP	12	192	4
TAP	12	240	2
TAP	12	240	5
TAP	12	336	1
TAP	12	336	6
TAP	13	48	0
TAP	13	48	7
TAP	13	96	2
TAP	13	96	5
TAP	13	192	3
TAP	13	192	4
BRK	13	240	1
BRK	13	240	6
TAP	14	0	7
TAP	14	48	7
STR	14	144	1
SI_	14	144	1	96	48	4
TAP	14	192	0
TAP	14	240	1
STR	14	336	6
SI_	14	336	6	96	48	3
TAP	15	0	7
TAP	15	48	6
STR	15	144	1
SI_	15	144	1	96	48	4
TAP	15	192	0
TAP	15	240	1
STR	15	336	6
SI_	15	336	6	96	48	2
TAP	16	0	7
TAP	16	48	6
STR	16	144	1
SI_	16	144	1	96	48	5
TAP	16	192	0
TAP	16	240	1
STR	16	336	6
SI_	16	336	6	96	48	2
TAP	17	0	7
TAP	17	48	6
STR	17	144	1
SI_	17	144	1	96	48	5
TAP	17	192	0
TAP	17	240	1
STR	17	336	6
SI_	17	336	6	96	48	3
TAP	18	0	7
TAP	18	48	6
STR	18	144	2
SI_	18	144	2	96	48	7
TAP	18	192	3
TAP	18	240	2
STR	18	336	6
SI_	18	336	6	96	48	3
TAP	19	0	7
TAP	19	48	6
STR	19	144	2
SI_	19	144	2	96	48	7
TAP	19	192	3
TAP	19	240	2
STR	19	336	5
SI_	19	336	5	96	48	0
TAP	20	0	4
TAP	20	48	5
STR	20	144	1
SI_	20	144	1	96	48	4
TAP	20	192	0
TAP	20	240	1
STR	20	336	5
SI_	20	336	5	96	48	0
TAP	21	0	4
TAP	21	48	5
STR	21	144	1
SCL	21	144	1	96	96	4
TAP	21	192	0
TAP	21	240	1
HLD	22	0	2	96
TAP	22	96	1
TAP	22	144	2
TAP	22	192	3
TAP	22	240	4
TAP	22	288	5
HLD	22	336	4	96
TAP	23	48	5
TAP	23	96	6
TAP	23	144	5
TAP	23	192	4
TAP	23	240	3
TAP	23	288	2
HLD	23	336	3	96
TAP	24	48	2
TAP	24	96	1
TAP	24	144	2
TAP	24	192	3
TAP	24	240	4
TAP	24	288	5
HLD	24	336	4	96
TAP	25	48	5
TAP	25	96	6
TAP	25	144	5
TAP	25	192	4
TAP	25	240	3
TAP	25	288	2
HLD	25	336	3	96
TAP	26	48	1
TAP	26	96	2
TAP	26	144	1
TAP	26	192	0
TAP	26	240	7
TAP	26	288	6
HLD	26	336	7	96
TAP	27	48	6
TAP	27	96	5
TAP	27	144	6
TAP	27	192	0
TAP	27	240	1
TAP	27	288	0
STR	28	0	6
SI_	28	0	6	96	48	4
STR	28	0	7
SI_	28	0	7	96	48	3
STR	28	192	0
SI_	28	192	0	96	48	4
STR	28	192	1
SI_	28	192	1	96	48	3
STR	29	0	6
SI_	29	0	6	96	48	3
STR	29	96	1
SI_	29	96	1	96	48	4
BRK	29	192	0
BRK	29	288	1
BRK	29	288	6
TAP	30	0	2
TAP	30	0	7
TAP	30	96	0
TAP	30	96	5
TAP	30	192	6
TAP	30	240	4
TAP	30	288	3
HLD	30	336	1	96
TAP	31	48	0
TAP	31	96	1
TAP	31	144	2
STR	31	192	1
SCR	31	192	1	96	48	4
TAP	32	0	6
TAP	32	48	5
TAP	32	96	4
TAP	32	144	1
TAP	32	192	2
TAP	32	240	3
TAP	32	288	7
STR	32	336	6
SI_	32	336	6	96	48	2
TAP	33	48	0
STR	33	96	0
SI_	33	96	0	96	48	4
TAP	33	192	7
TAP	33	288	0
TAP	33	288	7
TAP	34	0	0
TAP	34	0	5
TAP	34	96	2
TAP	34	96	7
TAP	34	192	1
TAP	34	240	3
TAP	34	288	4
HLD	34	336	6	96
TAP	35	48	7
TAP	35	96	6
TAP	35	144	5
STR	35	192	6
SCL	35	192	6	96	48	3
TAP	36	0	1
TAP	36	48	2
TAP	36	96	3
TAP	36	144	6
TAP	36	192	5
TAP	36	240	4
TAP	36	288	0
STR	36	336	1
SI_	36	336	1	96	48	5
TAP	37	48	7
STR	37	96	7
SI_	37	96	7	96	48	3
TAP	37	192	0
TAP	37	288	0
TAP	37	288	7
STR	38	0	1
SI_	38	0	1	96	48	4
TAP	38	48	4
TAP	38	96	1
STR	38	144	6
SI_	38	144	6	96	48	3
TAP	38	192	3
TAP	38	240	6
STR	38	288	0
SI_	38	288	0	96	48	5
TAP	38	336	5
TAP	39	0	0
STR	39	48	7
SI_	39	48	7	96	48	2
TAP	39	96	2
TAP	39	144	7
STR	39	192	1
SI_	39	192	1	96	48	5
TAP	39	288	0
TAP	39	288	1
STR	40	0	6
SI_	40	0	6	96	48	3
TAP	40	48	3
TAP	40	96	6
STR	40	144	1
SI_	40	144	1	96	48	4
TAP	40	192	4
TAP	40	240	1
STR	40	288	7
SI_	40	288	7	96	48	2
TAP	40	336	2
TAP	41	0	7
STR	41	48	0
SI_	41	48	0	96	48	5
TAP	41	96	5
TAP	41	144	0
STR	41	192	6
SI_	41	192	6	96	48	2
TAP	41	288	6
TAP	41	288	7
TAP	42	0	1
TAP	42	0	4
TAP	42	48	2
TAP	42	72	3
TAP	42	96	2
TAP	42	144	5
TAP	42	168	4
TAP	42	192	5
TAP	42	240	2
TAP	42	288	1
TAP	42	288	6
TAP	42	336	3
TAP	42	336	4
TAP	43	48	2
TAP	43	48	5
STR	43	96	0
SCR	43	96	0	96	48	3
STR	43	96	7
SCL	43	96	7	96	48	4
TAP	43	192	0
TAP	43	192	7
TAP	43	288	5
TAP	43	336	4
TAP	44	0	3
TAP	44	48	2
STR	44	96	2
SCR	44	96	2	96	48	5
TAP	44	144	2
TAP	44	240	6
STR	44	288	6
SI_	44	288	6	96	48	1
TAP	44	336	6
TAP	45	48	2
STR	45	96	2
SI_	45	96	2	96	48	5
TAP	45	144	2
TAP	46	0	2
TAP	46	0	7
TAP	46	96	0
TAP	46	96	5
TAP	46	192	6
TAP	46	240	4
TAP	46	288	3
HLD	46	336	1	96
TAP	47	48	0
TAP	47	96	1
TAP	47	144	2
STR	47	192	1
SCR	47	192	1	96	48	4
TAP	48	0	6
TAP	48	48	5
TAP	48	96	4
TAP	48	144	1
TAP	48	192	2
TAP	48	240	3
TAP	48	288	7
STR	48	336	6
SI_	48	336	6	96	48	2
TAP	49	48	0
STR	49	96	0
SI_	49	96	0	96	48	4
TAP	49	192	7
TAP	49	288	3
TAP	49	288	4
TAP	50	0	0
TAP	50	0	5
TAP	50	96	2
TAP	50	96	7
TAP	50	192	1
TAP	50	240	3
TAP	50	288	4
HLD	50	336	6	96
TAP	51	48	7
TAP	51	96	6
TAP	51	144	5
STR	51	192	6
SCL	51	192	6	96	48	3
TAP	52	0	1
TAP	52	48	2
TAP	52	96	3
TAP	52	144	6
TAP	52	192	5
TAP	52	240	4
TAP	52	288	0
STR	52	336	1
SI_	52	336	1	96	48	5
TAP	53	48	7
STR	53	96	7
SI_	53	96	7	96	48	3
TAP	53	192	0
TAP	53	288	3
TAP	53	288	4
STR	54	0	7
SI_	54	0	7	96	48	2
TAP	54	48	2
TAP	54	96	7
STR	54	144	1
SI_	54	144	1	96	48	4
TAP	54	192	4
TAP	54	240	1
STR	54	288	6
SI_	54	288	6	96	48	3
TAP	54	336	3
TAP	55	0	6
STR	55	48	0
SI_	55	48	0	96	48	5
TAP	55	96	5
TAP	55	144	0
STR	55	192	7
SI_	55	192	7	96	48	3
TAP	55	288	0
TAP	55	288	7
STR	56	0	0
SI_	56	0	0	96	48	5
TAP	56	48	5
TAP	56	96	0
STR	56	144	6
SI_	56	144	6	96	48	3
TAP	56	192	3
TAP	56	240	6
STR	56	288	1
SI_	56	288	1	96	48	4
TAP	56	336	4
TAP	57	0	1
STR	57	48	7
SI_	57	48	7	96	48	2
TAP	57	96	2
TAP	57	144	7
STR	57	192	0
SI_	57	192	0	96	48	4
TAP	57	288	0
TAP	57	288	7
TAP	58	0	3
TAP	58	0	6
TAP	58	48	5
TAP	58	72	4
TAP	58	96	5
TAP	58	144	2
TAP	58	168	3
TAP	58	192	2
TAP	58	240	5
TAP	58	288	1
TAP	58	288	6
TAP	58	336	3
TAP	58	336	4
STR	59	48	0
SSL	59	48	0	96	96	4
TAP	59	48	7
TAP	59	96	0
TAP	59	96	7
TAP	59	288	2
TAP	59	336	3
TAP	60	0	4
TAP	60	48	5
STR	60	96	5
SCL	60	96	5	96	48	2
TAP	60	144	5
TAP	60	240	1
STR	60	288	1
SUR	60	288	1	96	48	6
TAP	60	336	1
TAP	61	48	7
TAP	61	96	7
TAP	61	144	0
BRK	61	192	1
BRK	61	192	6
TAP	61	288	3
TAP	61	312	4
TAP	61	336	3
TAP	61	360	4
TAP	62	0	2
TAP	62	0	5
TAP	62	96	1
TAP	62	144	0
TAP	62	144	2
TAP	62	240	7
TAP	62	288	6
TAP	62	336	5
TAP	63	0	4
TAP	63	0	6
TAP	63	96	2
BRK	63	144	1
BRK	63	144	3
STR	63	288	6
SCR	63	288	6	96	48	1
TAP	63	336	7
TAP	64	0	6
STR	64	96	2
SUL	64	96	2	96	48	6
TAP	64	144	3
TAP	64	192	2
STR	64	288	5
SCL	64	288	5	96	48	2
TAP	64	336	4
TAP	65	0	5
STR	65	96	0
SCL	65	96	0	96	48	5
TAP	65	144	0
STR	65	192	0
SCR	65	192	0	96	48	2
TAP	66	0	1
TAP	66	0	6
TAP	66	96	6
TAP	66	144	5
TAP	66	144	7
TAP	66	240	0
TAP	66	288	1
TAP	66	336	2
TAP	67	0	1
TAP	67	0	3
TAP	67	96	5
BRK	67	144	4
BRK	67	144	6
STR	67	288	1
SCL	67	288	1	96	48	6
TAP	67	336	0
TAP	68	0	1
STR	68	96	5
SUR	68	96	5	96	48	1
TAP	68	144	4
TAP	68	192	5
STR	68	288	2
SCR	68	288	2	96	48	5
TAP	68	336	3
TAP	69	0	2
TAP	69	96	7
TAP	69	144	0
TAP	69	192	2
TAP	69	240	0
TAP	69	288	7
TAP	69	336	5
TAP	70	0	1
TAP	70	0	6
TAP	70	96	1
TAP	70	144	0
TAP	70	144	2
TAP	70	240	7
TAP	70	288	6
TAP	70	336	5
TAP	71	0	4
TAP	71	0	6
TAP	71	96	2
BRK	71	144	1
BRK	71	144	3
STR	71	288	6
SCL	71	288	6	96	48	3
TAP	71	336	7
TAP	72	0	6
STR	72	96	1
SCR	72	96	1	96	48	4
TAP	72	144	0
TAP	72	192	1
STR	72	288	5
SI_	72	288	5	96	48	0
TAP	72	336	4
TAP	73	0	5
STR	73	96	2
SI_	73	96	2	96	48	7
TAP	73	144	3
TAP	73	192	2
STR	73	288	5
SI_	73	288	5	96	48	0
STR	73	288	6
SI_	73	288	6	96	48	3
STR	74	96	1
SI_	74	96	1	96	48	4
STR	74	96	2
SI_	74	96	2	96	48	7
STR	74	288	5
SI_	74	288	5	96	48	0
STR	74	288	6
SI_	74	288	6	96	48	3
STR	75	96	1
SI_	75	96	1	96	48	4
STR	75	96	2
SI_	75	96	2	96	48	7
STR	75	288	0
SI_	75	288	0	96	48	5
STR	75	288	7
SI_	75	288	7	96	48	2
TAP	76	0	0
TAP	76	0	7
TAP	76	96	3
TAP	76	96	4
TAP	76	192	1
TAP	76	192	6
TAP	76	240	1
TAP	76	240	6
TAP	76	336	3
TAP	76	336	4
TAP	77	48	2
TAP	77	48	5
TAP	77	96	0
TAP	77	96	7
TAP	77	144	3
TAP	77	144	4
BRK	77	192	1
BRK	77	192	6
TAP	77	288	3
TAP	77	288	4
STR	78	0	6
SI_	78	0	6	96	48	2
TAP	78	48	6
TAP	78	144	0
STR	78	192	1
SI_	78	192	1	96	48	5
TAP	78	240	1
TAP	78	336	7
TAP	79	0	0
TAP	79	48	7
TAP	79	96	0
BRK	79	192	1
BRK	79	192	6
TAP	79	288	0
TAP	79	336	1
TAP	80	0	2
TAP	80	48	5
TAP	80	72	4
TAP	80	96	5
TAP	80	144	2
TAP	80	168	3
TAP	80	192	2
STR	80	240	1
SCR	80	240	1	96	96	4
TAP	80	240	4
STR	80	336	4
SCR	80	336	4	96	96	7
STR	81	48	7
SCR	81	48	7	96	96	2
TAP	81	144	3
TAP	81	192	3
TAP	81	288	3
TAP	81	288	6
TAP	81	336	0
STR	82	0	1
SI_	82	0	1	96	48	5
TAP	82	48	1
TAP	82	144	7
STR	82	192	6
SI_	82	192	6	96	48	2
TAP	82	240	6
TAP	82	336	0
TAP	83	0	7
TAP	83	48	0
TAP	83	96	7
STR	83	192	1
SCL	83	192	1	96	48	6
BRK	83	192	6
TAP	84	0	5
TAP	84	48	2
TAP	84	72	3
TAP	84	96	2
TAP	84	144	5
TAP	84	168	4
TAP	84	192	5
TAP	84	240	3
TAP	84	240	6
TAP	84	336	1
TAP	84	336	4
TAP	85	48	2
TAP	85	48	5
STR	85	96	3
SCR	85	96	3	96	48	6
STR	85	96	4
SCL	85	96	4	96	48	1
STR	85	288	0
SI_	85	288	0	96	48	2
STR	85	288	6
SI_	85	288	6	96	48	2
STR	86	96	1
SI_	86	96	1	96	48	5
STR	86	96	7
SI_	86	96	7	96	48	5
STR	86	288	0
SI_	86	288	0	96	48	2
STR	86	288	6
SI_	86	288	6	96	48	2
STR	87	0	0
SV_	87	0	0	96	48	3
STR	87	0	6
SV_	87	0	6	96	48	3
STR	87	96	0
SI_	87	96	0	96	48	4
STR	87	96	6
SI_	87	96	6	96	48	4
TAP	87	288	2
TAP	87	336	2
TAP	88	0	6
TAP	88	48	1
TAP	88	72	3
TAP	88	96	1
TAP	88	144	6
TAP	88	168	4
TAP	88	192	6
TAP	88	240	1
TAP	88	336	2
TAP	88	336	5
TAP	89	48	6
TAP	89	96	4
TAP	89	144	3
STR	89	192	1
SUR	89	192	1	96	48	5
TAP	89	288	1
TAP	89	336	7
STR	90	0	6
SUL	90	0	6	96	48	2
TAP	90	48	6
TAP	90	144	0
STR	90	192	1
SCL	90	192	1	96	48	6
TAP	90	240	1
TAP	90	336	5
TAP	91	0	7
TAP	91	48	0
STR	91	96	2
SCL	91	96	2	96	96	5
TAP	92	0	2
TAP	92	0	5
TAP	92	48	1
TAP	92	72	3
TAP	92	96	1
TAP	92	144	6
TAP	92	168	4
TAP	92	192	6
TAP	92	240	1
TAP	92	336	3
TAP	92	336	4
TAP	93	48	0
TAP	93	72	7
TAP	93	96	0
TAP	93	120	7
TAP	93	144	0
TAP	93	168	7
TAP	93	192	1
TAP	93	216	6
TAP	93	240	0
TAP	93	264	7
TAP	93	288	1
TAP	93	312	6
TAP	93	336	0
TAP	93	360	7
STR	94	0	1
SI_	94	0	1	96	192	4
TAP	94	0	6
TAP	94	336	0
STR	95	0	0
SI_	95	0	0	96	192	5
TAP	95	48	0
TAP	95	336	7
STR	96	0	7
SI_	96	0	7	96	192	2
TAP	96	48	7
TAP	96	336	6
STR	97	0	6
SI_	97	0	6	96	192	3
TAP	97	48	6
TAP	97	336	0
TAP	98	0	7
STR	98	48	1
SUL	98	48	1	96	624	3
STR	98	48	6
SUR	98	48	6	96	624	4

T_REC_TAP	502
T_REC_BRK	18
T_REC_XTP	0
T_REC_HLD	10
T_REC_XHO	0
T_REC_STR	113
T_REC_BST	0
T_REC_XST	0
T_REC_TTP	0
T_REC_THO	0
T_REC_SLD	113
T_REC_ALL	756
T_NUM_TAP	615
T_NUM_BRK	18
T_NUM_HLD	10
T_NUM_SLD	113
T_NUM_ALL	756
T_JUDGE_TAP	633
T_JUDGE_HLD	20
T_JUDGE_SLD	113
T_JUDGE_ALL	766
TTM_EACHPAIRS	116
TTM_SCR_TAP	307500
TTM_SCR_BRK	46800
TTM_SCR_HLD	10000
TTM_SCR_SLD	169500
TTM_SCR_ALL	533800
TTM_SCR_S	516050
TTM_SCR_SS	532000
TTM_RAT_ACV	10033

