VERSION	0.00.00	1.03.00
FES_MODE	0
BPM_DEF	205.000	205.000	205.000	205.000
MET_DEF	4	4
RESOLUTION	384
CLK_DEF	384
COMPATIBLE_CODE	MA2

BPM	0	0	205.000
MET	0	0	4	4

TAP	5	336	3
TAP	5	336	4
TAP	6	48	2
TAP	6	48	5
TAP	6	96	2
TAP	6	96	5
TAP	6	192	2
TAP	6	192	5
TAP	6	240	2
TAP	6	240	5
TAP	6	336	1
TAP	6	336	6
TAP	7	48	2
TAP	7	48	5
TAP	7	96	2
TAP	7	96	5
TAP	7	192	2
TAP	7	192	5
TAP	7	240	2
TAP	7	240	5
TAP	7	336	0
TAP	7	336	7
TAP	8	48	2
TAP	8	48	5
TAP	8	96	2
TAP	8	96	5
TAP	8	192	2
TAP	8	192	5
TAP	8	240	2
TAP	8	240	5
TAP	8	336	3
TAP	8	336	4
TAP	9	48	2
TAP	9	48	5
TAP	9	96	2
TAP	9	96	5
TAP	9	192	2
TAP	9	192	5
TAP	9	240	2
TAP	9	240	5
TAP	9	336	0
TAP	9	336	2
TAP	10	48	2
TAP	10	48	5
TAP	10	96	2
TAP	10	96	5
TAP	10	192	2
TAP	10	192	5
TAP	10	240	2
TAP	10	240	5
TAP	10	336	5
TAP	10	336	7
TAP	11	48	2
TAP	11	48	5
TAP	11	96	2
TAP	11	96	5
TAP	11	192	2
TAP	11	192	5
TAP	11	240	2
TAP	11	240	5
TAP	11	336	0
TAP	11	336	1
TAP	12	48	2
TAP	12	48	5
TAP	12	96	2
TAP	12	96	5
TAP	12	192	2
TAP	12	192	5
TAP	12	240	2
TAP	12	240	5
TAP	12	336	6
TAP	12	336	7
TAP	13	48	2
TAP	13	48	5
TAP	13	96	2
TAP	13	96	5
TAP	13	192	2
TAP	13	192	5
TAP	13	240	2
TAP	13	240	5
STR	14	0	3
SI_	14	0	3	96	576	0
STR	14	0	4
SI_	14	0	4	96	576	7
STR	16	0	3
SI_	16	0	3	96	288	0
TAP	16	0	4
TAP	16	96	4
TAP	16	192	4
TAP	16	288	4
TAP	17	0	5
TAP	17	96	5
TAP	17	192	5
TAP	17	288	5
TAP	18	0	2
STR	18	0	3
SCR	18	0	3	96	288	7
TAP	18	96	2
TAP	18	192	2
TAP	18	288	2
TAP	19	0	1
TAP	19	96	1
TAP	19	192	1
TAP	19	288	1
STR	20	0	4
SCL	20	0	4	96	288	0
TAP	20	0	5
TAP	20	96	5
TAP	20	192	5
TAP	20	288	5
TAP	21	0	6
TAP	21	96	6
TAP	21	192	5
TAP	21	240	2
TAP	21	288	5
TAP	21	336	2
TAP	22	0	6
TAP	22	48	6
TAP	22	144	3
TAP	22	192	3
TAP	22	240	3
TAP	22	336	4
TAP	23	0	4
TAP	23	48	4
TAP	23	144	1
TAP	23	192	1
TAP	23	240	1
TAP	23	336	5
TAP	24	0	5
TAP	24	48	5
TAP	24	144	0
TAP	24	192	0
TAP	24	240	0
TAP	24	336	7
TAP	25	0	7
TAP	25	48	7
TAP	25	144	2
TAP	25	192	2
TAP	25	240	2
TAP	25	336	6
TAP	26	0	7
TAP	26	48	6
TAP	26	144	0
TAP	26	192	0
TAP	26	240	0
TAP	26	336	1
TAP	27	0	0
TAP	27	48	1
TAP	27	144	7
TAP	27	192	7
TAP	27	240	7
STR	28	0	6
SI_	28	0	6	96	48	1
STR	28	192	2
SI_	28	192	2	96	48	5
TAP	29	0	1
TAP	29	0	6
STR	29	96	0
SCR	29	96	0	96	96	3
STR	29	96	7
SCL	29	96	7	96	96	4
TAP	30	0	7
TAP	30	96	5
TAP	30	192	3
TAP	30	288	1
HLD	31	0	7	288
STR	31	96	6
SCL	31	96	6	96	96	3
HLD	32	0	1	96
HLD	32	96	6	96
HLD	32	192	2	96
HLD	32	288	5	96
HLD	33	0	0	192
STR	33	96	5
SI_	33	96	5	96	48	2
TAP	34	0	0
TAP	34	96	2
TAP	34	192	4
TAP	34	288	6
STR	35	0	1
SCR	35	0	1	96	48	4
STR	35	96	5
SCR	35	96	5	96	48	0
HLD	36	0	5	96
HLD	36	96	0	96
HLD	36	192	2	96
HLD	36	288	6	96
HLD	37	0	7	96
STR	37	96	0
SCR	37	96	0	96	96	3
TAP	38	0	4
TAP	38	48	3
TAP	38	96	3
TAP	38	144	4
TAP	38	192	2
TAP	38	240	2
TAP	38	288	4
TAP	38	336	1
TAP	39	0	1
TAP	39	48	4
TAP	39	96	0
TAP	39	144	0
STR	39	192	7
SI_	39	192	7	96	48	3
TAP	40	0	0
TAP	40	48	7
TAP	40	96	7
TAP	40	144	0
TAP	40	192	6
TAP	40	240	6
TAP	40	288	0
TAP	40	336	5
TAP	41	0	5
TAP	41	48	0
TAP	41	96	4
TAP	41	144	4
STR	41	192	3
SI_	41	192	3	96	48	7
HLD	42	0	6	96
HLD	42	96	7	96
HLD	42	192	0	96
HLD	42	288	1	96
TAP	43	0	7
TAP	43	96	0
TAP	43	192	7
TAP	43	288	0
TAP	43	288	7
TAP	44	0	1
TAP	44	0	2
TAP	44	96	3
TAP	44	96	4
TAP	44	192	5
TAP	44	192	6
TAP	44	288	0
TAP	44	288	7
TAP	45	0	2
TAP	45	0	6
STR	45	96	1
SI_	45	96	1	96	96	6
STR	45	96	5
SI_	45	96	5	96	96	2
STR	46	0	0
SI_	46	0	0	96	48	3
STR	46	192	4
SI_	46	192	4	96	48	7
HLD	47	0	0	96
TAP	47	96	5
TAP	47	192	0
TAP	47	192	1
TAP	47	288	2
TAP	47	288	3
HLD	48	0	1	96
HLD	48	96	5	96
HLD	48	192	7	96
HLD	48	288	3	96
STR	49	0	0
SUR	49	0	0	96	192	3
TAP	50	0	4
TAP	50	0	5
TAP	50	96	4
TAP	50	96	5
TAP	50	192	0
TAP	50	192	1
TAP	50	288	0
TAP	50	288	1
TAP	51	0	0
TAP	51	0	7
STR	51	96	1
SI_	51	96	1	96	48	5
STR	51	96	6
SI_	51	96	6	96	48	2
TAP	52	0	0
TAP	52	0	3
TAP	52	96	1
TAP	52	96	6
TAP	52	192	4
TAP	52	192	7
TAP	52	288	2
TAP	52	288	5
TAP	53	0	1
TAP	53	0	6
STR	53	96	3
SI_	53	96	3	96	96	0
STR	53	96	4
SI_	53	96	4	96	96	7
TAP	54	0	3
TAP	54	48	4
TAP	54	96	4
TAP	54	144	3
TAP	54	192	5
TAP	54	240	5
TAP	54	288	3
TAP	54	336	6
TAP	55	0	6
TAP	55	48	3
TAP	55	96	7
TAP	55	144	7
STR	55	192	0
SI_	55	192	0	96	48	5
TAP	56	0	7
TAP	56	48	0
TAP	56	96	0
TAP	56	144	7
TAP	56	192	1
TAP	56	240	1
TAP	56	288	7
TAP	56	336	2
TAP	57	0	2
TAP	57	48	7
TAP	57	96	3
TAP	57	144	3
STR	57	192	4
SI_	57	192	4	96	48	1
TAP	58	0	0
TAP	58	48	7
TAP	58	96	1
TAP	58	144	6
TAP	58	192	2
TAP	58	240	5
TAP	58	288	3
HLD	58	336	4	240
STR	59	96	7
SSR	59	96	7	96	96	3
TAP	60	0	1
TAP	60	96	0
TAP	60	96	1
TAP	60	192	6
TAP	60	288	6
TAP	60	288	7
HLD	61	0	5	288
TAP	61	96	3
HLD	61	192	2	96
STR	62	0	6
SI_	62	0	6	96	48	1
STR	62	144	2
SI_	62	144	2	96	48	5
TAP	62	288	6
BRK	63	0	0
BRK	63	0	1
BRK	63	144	0
BRK	63	144	1
TAP	63	288	1
TAP	63	336	0
TAP	64	0	1
TAP	64	96	0
TAP	64	144	7
TAP	64	192	0
TAP	64	288	7
TAP	64	336	6
TAP	65	0	7
TAP	65	96	6
TAP	65	144	1
TAP	65	192	6
TAP	65	288	7
STR	66	0	1
SI_	66	0	1	96	48	6
STR	66	144	5
SI_	66	144	5	96	48	2
TAP	66	288	1
BRK	67	0	6
BRK	67	0	7
BRK	67	144	6
BRK	67	144	7
TAP	67	288	5
TAP	67	336	4
TAP	68	0	5
TAP	68	96	4
TAP	68	144	3
TAP	68	192	4
TAP	68	288	3
TAP	68	336	2
TAP	69	0	3
TAP	69	48	2
TAP	69	96	3
TAP	69	144	2
TAP	69	192	5
TAP	69	240	2
TAP	69	288	5
TAP	69	336	2
STR	70	0	4
SI_	70	0	4	96	48	7
STR	70	144	0
SI_	70	144	0	96	48	3
TAP	70	288	4
BRK	71	0	0
BRK	71	0	7
BRK	71	144	0
BRK	71	144	7
TAP	71	288	6
TAP	71	336	7
TAP	72	0	6
TAP	72	96	7
TAP	72	144	0
TAP	72	192	7
TAP	72	288	1
TAP	72	336	0
TAP	73	0	1
TAP	73	96	0
TAP	73	144	7
HLD	73	192	0	192
TAP	73	288	4
HLD	74	0	4	192
TAP	74	96	6
HLD	74	192	6	192
TAP	74	288	3
HLD	75	0	3	192
TAP	75	96	1
HLD	75	192	1	96
TAP	75	288	7
TAP	76	0	3
TAP	76	0	4
TAP	76	96	3
TAP	76	96	4
TAP	76	192	2
TAP	76	192	5
TAP	76	240	2
TAP	76	240	5
TAP	76	336	2
TAP	76	336	5
TAP	77	48	1
TAP	77	48	6
TAP	77	96	1
TAP	77	96	6
TAP	77	144	1
TAP	77	144	6
BRK	77	192	0
BRK	77	192	7
TAP	78	0	0
TAP	78	96	3
TAP	78	96	6
TAP	78	192	7
TAP	78	288	1
TAP	78	288	4
TAP	79	0	3
TAP	79	0	4
TAP	79	96	0
TAP	79	96	7
BRK	79	192	0
BRK	79	192	7
TAP	80	0	0
TAP	80	48	7
TAP	80	96	1
TAP	80	144	6
TAP	80	192	2
TAP	80	240	5
TAP	80	288	3
HLD	80	336	4	240
TAP	81	48	7
STR	81	96	7
SI_	81	96	7	96	96	3
TAP	82	0	3
TAP	82	96	0
TAP	82	96	5
TAP	82	192	4
TAP	82	288	2
TAP	82	288	7
TAP	83	0	6
TAP	83	0	7
TAP	83	96	0
TAP	83	96	1
BRK	83	192	0
BRK	83	192	7
TAP	84	0	5
TAP	84	48	4
TAP	84	96	6
TAP	84	144	3
TAP	84	192	7
TAP	84	240	2
TAP	84	288	0
HLD	84	336	1	240
TAP	85	48	7
STR	85	96	7
SI_	85	96	7	96	48	3
TAP	86	0	1
TAP	86	96	4
TAP	86	96	5
TAP	86	192	6
TAP	86	288	2
TAP	86	288	3
TAP	87	0	5
TAP	87	0	6
TAP	87	96	1
TAP	87	96	2
BRK	87	192	0
BRK	87	192	7
TAP	88	0	2
TAP	88	48	3
TAP	88	96	1
TAP	88	144	4
TAP	88	192	0
TAP	88	240	5
TAP	88	288	7
HLD	88	336	6	240
TAP	89	48	0
STR	89	96	0
SI_	89	96	0	96	48	3
TAP	89	336	2
TAP	89	336	3
TAP	90	0	2
TAP	90	0	3
TAP	90	48	2
TAP	90	48	3
TAP	90	144	4
TAP	90	144	5
TAP	90	192	4
TAP	90	192	5
TAP	90	240	4
TAP	90	240	5
TAP	90	336	1
TAP	90	336	6
TAP	91	0	1
TAP	91	0	6
TAP	91	48	1
TAP	91	48	6
TAP	91	96	1
TAP	91	96	6
BRK	91	192	0
BRK	91	192	7
TAP	92	0	1
TAP	92	48	0
TAP	92	96	2
TAP	92	144	7
TAP	92	192	3
TAP	92	240	6
TAP	92	288	4
HLD	92	336	5	240
TAP	93	48	3
STR	93	96	3
SI_	93	96	3	96	96	7
STR	94	0	5
SI_	94	0	5	96	192	1
STR	94	0	6
SI_	94	0	6	96	192	2
STR	95	0	0
SI_	95	0	0	96	192	4
STR	95	0	7
SI_	95	0	7	96	192	3
STR	96	0	3
SI_	96	0	3	96	192	7
STR	96	0	4
SI_	96	0	4	96	192	0
STR	97	0	1
SI_	97	0	1	96	192	5
STR	97	0	2
SI_	97	0	2	96	192	6
STR	98	0	0
SUL	98	0	0	96	624	2
STR	98	0	7
SUR	98	0	7	96	624	5

T_REC_TAP	399
T_REC_BRK	22
T_REC_XTP	0
T_REC_HLD	32
T_REC_XHO	0
T_REC_STR	48
T_REC_BST	0
T_REC_XST	0
T_REC_TTP	0
T_REC_THO	0
T_REC_SLD	48
T_REC_ALL	549
T_NUM_TAP	447
T_NUM_BRK	22
T_NUM_HLD	32
T_NUM_SLD	48
T_NUM_ALL	549
T_JUDGE_TAP	469
T_JUDGE_HLD	97
T_JUDGE_SLD	48
T_JUDGE_ALL	614
TTM_EACHPAIRS	115
TTM_SCR_TAP	223500
TTM_SCR_BRK	57200
TTM_SCR_HLD	32000
TTM_SCR_SLD	72000
TTM_SCR_ALL	384700
TTM_SCR_S	371050
TTM_SCR_SS	382500
TTM_RAT_ACV	10057

