VERSION	0.00.00	1.03.00
FES_MODE	0
BPM_DEF	205.000	205.000	205.000	205.000
MET_DEF	4	4
RESOLUTION	384
CLK_DEF	384
COMPATIBLE_CODE	MA2

BPM	0	0	205.000
MET	0	0	4	4

TAP	5	336	5
TAP	6	336	4
TAP	7	336	3
TAP	8	336	2
TAP	9	336	0
TAP	9	336	1
TAP	10	336	6
TAP	10	336	7
TAP	11	336	4
TAP	11	336	5
TAP	12	336	2
TAP	12	336	3
HLD	14	0	2	1344
HLD	14	0	5	1344
TAP	18	0	3
TAP	18	96	3
TAP	19	0	4
TAP	19	96	4
TAP	20	0	2
TAP	20	96	2
TAP	21	0	5
TAP	21	96	5
TAP	22	0	1
TAP	22	96	1
TAP	22	192	1
TAP	23	0	6
TAP	23	96	6
TAP	23	192	6
TAP	24	0	0
TAP	24	96	0
TAP	24	192	0
TAP	25	0	7
TAP	25	96	7
TAP	25	192	7
TAP	26	0	0
TAP	26	96	0
TAP	26	192	1
TAP	26	288	1
TAP	27	0	2
TAP	27	96	2
TAP	27	192	2
TAP	27	192	3
TAP	28	0	7
TAP	28	96	7
TAP	28	192	6
TAP	28	288	6
TAP	29	0	5
TAP	29	96	5
BRK	29	192	4
BRK	29	192	5
TAP	30	0	0
TAP	30	96	0
TAP	30	192	1
TAP	31	0	7
TAP	31	96	7
TAP	31	192	6
TAP	32	0	3
TAP	32	96	3
TAP	32	192	2
TAP	33	0	4
TAP	33	96	4
TAP	33	192	5
TAP	34	0	1
TAP	34	96	1
TAP	34	192	0
TAP	34	192	2
TAP	35	0	6
TAP	35	96	6
TAP	35	192	5
TAP	35	192	7
TAP	36	0	2
TAP	36	96	2
TAP	36	192	1
TAP	36	192	3
TAP	37	0	5
TAP	37	96	5
TAP	37	192	4
TAP	37	192	6
TAP	38	0	1
TAP	38	96	2
TAP	38	192	2
TAP	38	288	3
TAP	39	0	2
TAP	39	96	2
TAP	39	192	1
TAP	39	192	3
TAP	40	0	6
TAP	40	96	5
TAP	40	192	5
TAP	40	288	4
TAP	41	0	5
TAP	41	96	5
TAP	41	192	4
TAP	41	192	6
HLD	42	0	0	192
HLD	42	192	7	192
HLD	43	0	1	192
HLD	43	192	6	192
HLD	44	0	2	192
HLD	44	192	5	192
HLD	45	0	3	192
BRK	45	192	4
TAP	46	0	3
TAP	46	96	3
TAP	46	192	2
TAP	46	288	2
TAP	47	0	1
TAP	47	96	1
TAP	47	192	0
TAP	48	0	4
TAP	48	96	4
TAP	48	192	5
TAP	48	288	5
TAP	49	0	6
TAP	49	96	6
TAP	49	192	7
TAP	50	0	3
TAP	50	0	4
TAP	50	96	3
TAP	50	96	4
TAP	50	192	2
TAP	50	192	5
TAP	50	288	2
TAP	50	288	5
TAP	51	0	1
TAP	51	0	6
TAP	51	96	1
TAP	51	96	6
TAP	51	192	0
TAP	51	192	7
TAP	52	0	0
TAP	52	0	7
TAP	52	96	0
TAP	52	96	7
TAP	52	192	1
TAP	52	192	6
TAP	52	288	1
TAP	52	288	6
TAP	53	0	2
TAP	53	0	5
TAP	53	96	2
TAP	53	96	5
TAP	53	192	3
TAP	53	192	4
TAP	54	0	0
TAP	54	0	1
TAP	54	96	1
TAP	54	192	1
TAP	54	288	0
TAP	54	288	1
TAP	55	0	0
TAP	55	96	0
TAP	55	192	1
TAP	55	192	7
TAP	56	0	6
TAP	56	0	7
TAP	56	96	6
TAP	56	192	6
TAP	56	288	6
TAP	56	288	7
TAP	57	0	7
TAP	57	96	7
TAP	57	192	0
TAP	57	192	6
HLD	58	0	2	192
HLD	58	192	3	192
HLD	59	0	4	192
TAP	59	192	5
HLD	60	0	1	192
HLD	60	192	0	192
HLD	61	0	7	192
BRK	61	192	6
TAP	62	0	7
TAP	62	192	5
TAP	63	0	3
TAP	63	192	1
STR	64	0	0
SI_	64	0	0	96	192	3
STR	65	0	7
SI_	65	0	7	96	192	4
TAP	66	0	0
TAP	66	192	2
TAP	67	0	4
TAP	67	192	6
STR	68	0	7
SUL	68	0	7	96	192	3
STR	69	0	0
SUR	69	0	0	96	192	4
TAP	70	0	6
TAP	70	192	5
TAP	70	192	7
TAP	71	0	1
TAP	71	192	0
TAP	71	192	2
STR	72	0	0
SUR	72	0	0	96	192	5
STR	73	0	7
SUL	73	0	7	96	192	2
TAP	74	0	1
TAP	74	96	1
TAP	74	192	1
TAP	74	288	0
TAP	74	288	2
TAP	75	0	6
TAP	75	96	6
TAP	75	192	6
TAP	75	288	5
TAP	75	288	7
TAP	76	0	0
TAP	76	0	7
TAP	76	96	1
TAP	76	96	6
TAP	76	192	2
TAP	76	192	5
TAP	76	288	3
TAP	76	288	4
TAP	77	0	2
TAP	77	0	3
TAP	77	96	3
TAP	77	96	4
BRK	77	192	4
BRK	77	192	5
TAP	78	0	0
TAP	78	0	1
TAP	78	192	6
TAP	78	192	7
TAP	79	0	1
TAP	79	96	6
TAP	79	192	0
TAP	79	192	7
TAP	80	0	1
TAP	80	96	2
TAP	80	192	3
TAP	80	288	4
TAP	81	0	5
TAP	81	96	6
TAP	81	192	0
TAP	81	192	7
TAP	81	288	1
TAP	81	288	6
TAP	82	0	4
TAP	82	0	5
TAP	82	192	2
TAP	82	192	3
TAP	83	0	4
TAP	83	96	2
TAP	83	96	5
TAP	83	192	2
TAP	83	192	5
TAP	84	0	6
TAP	84	96	7
TAP	84	192	6
TAP	84	288	0
TAP	84	288	5
TAP	85	0	1
TAP	85	96	0
TAP	85	192	1
TAP	85	288	2
TAP	85	288	7
TAP	86	0	0
TAP	86	0	1
TAP	86	192	6
TAP	86	192	7
TAP	87	0	0
TAP	87	0	1
TAP	87	96	0
TAP	87	96	7
TAP	87	192	6
TAP	87	192	7
TAP	88	0	5
TAP	88	96	4
TAP	88	96	5
TAP	88	192	5
TAP	88	288	4
TAP	88	288	5
TAP	89	0	2
TAP	89	96	2
TAP	89	96	3
TAP	89	192	2
TAP	89	288	2
TAP	89	288	3
TAP	90	0	1
TAP	90	0	2
TAP	90	192	5
TAP	90	192	6
TAP	91	0	0
TAP	91	0	7
TAP	91	96	0
TAP	91	96	7
TAP	91	192	5
TAP	91	192	6
TAP	92	0	3
TAP	92	0	4
TAP	92	96	3
TAP	92	96	4
TAP	92	192	3
TAP	92	192	4
TAP	92	288	1
TAP	92	288	2
TAP	93	0	0
TAP	93	0	7
TAP	93	96	5
TAP	93	96	6
BRK	93	192	3
BRK	93	192	4
TAP	94	0	5
TAP	94	96	4
TAP	94	192	3
TAP	94	192	5
TAP	95	0	2
TAP	95	96	3
TAP	95	192	2
TAP	95	192	4
TAP	96	0	6
TAP	96	96	6
TAP	96	96	7
TAP	96	192	0
TAP	96	192	5
TAP	97	0	1
TAP	97	96	0
TAP	97	96	1
TAP	97	192	2
TAP	97	192	7
STR	98	0	0
SSL	98	0	0	96	384	4

T_REC_TAP	288
T_REC_BRK	8
T_REC_XTP	0
T_REC_HLD	15
T_REC_XHO	0
T_REC_STR	7
T_REC_BST	0
T_REC_XST	0
T_REC_TTP	0
T_REC_THO	0
T_REC_SLD	7
T_REC_ALL	325
T_NUM_TAP	295
T_NUM_BRK	8
T_NUM_HLD	15
T_NUM_SLD	7
T_NUM_ALL	325
T_JUDGE_TAP	303
T_JUDGE_HLD	108
T_JUDGE_SLD	7
T_JUDGE_ALL	418
TTM_EACHPAIRS	82
TTM_SCR_TAP	147500
TTM_SCR_BRK	20800
TTM_SCR_HLD	15000
TTM_SCR_SLD	10500
TTM_SCR_ALL	193800
TTM_SCR_S	187250
TTM_SCR_SS	193000
TTM_RAT_ACV	10041

