VERSION	0.00.00	1.03.00
FES_MODE	0
BPM_DEF	205.000	205.000	205.000	205.000
MET_DEF	4	4
RESOLUTION	384
CLK_DEF	384
COMPATIBLE_CODE	MA2

BPM	0	0	205.000
MET	0	0	4	4

TAP	5	336	5
TAP	7	336	4
TAP	9	336	3
TAP	11	336	2
HLD	14	0	1	768
HLD	18	0	6	768
TAP	22	0	4
TAP	23	0	4
TAP	24	0	3
TAP	25	0	3
TAP	26	0	5
TAP	26	192	5
TAP	27	0	5
TAP	28	0	2
TAP	28	192	2
BRK	29	0	2
TAP	30	0	1
TAP	30	192	1
TAP	31	0	0
TAP	31	0	1
TAP	32	0	2
TAP	32	192	2
TAP	33	0	2
TAP	33	0	3
TAP	34	0	5
TAP	34	192	5
TAP	35	0	4
TAP	35	0	5
TAP	36	0	6
TAP	36	192	6
TAP	37	0	6
TAP	37	0	7
TAP	38	0	7
TAP	38	192	7
TAP	39	0	7
TAP	39	192	6
TAP	39	192	7
TAP	40	0	0
TAP	40	192	0
TAP	41	0	0
TAP	41	192	0
TAP	41	192	1
TAP	42	0	2
TAP	43	0	3
TAP	44	0	4
TAP	45	0	5
TAP	46	0	6
TAP	46	192	6
TAP	47	0	6
TAP	47	96	6
TAP	47	192	6
TAP	48	0	7
TAP	48	192	7
TAP	49	0	7
TAP	49	96	7
TAP	49	192	7
TAP	50	0	0
TAP	50	192	0
TAP	51	0	0
TAP	51	96	0
TAP	51	192	0
TAP	52	0	1
TAP	52	192	1
TAP	53	0	1
TAP	53	96	1
TAP	53	192	1
TAP	54	0	2
TAP	54	192	3
TAP	55	0	2
TAP	55	192	3
TAP	56	0	4
TAP	56	192	5
TAP	57	0	4
TAP	57	192	5
TAP	58	0	2
TAP	58	0	3
TAP	59	0	0
TAP	59	0	1
TAP	60	0	6
TAP	60	0	7
TAP	61	0	4
TAP	61	0	5
STR	62	0	7
SI_	62	0	7	96	288	4
TAP	64	0	3
TAP	64	192	2
TAP	65	0	1
TAP	65	96	1
TAP	65	192	1
STR	66	0	0
SI_	66	0	0	96	288	3
TAP	68	0	4
TAP	68	192	5
TAP	69	0	6
TAP	69	96	6
TAP	69	192	6
STR	70	0	5
SI_	70	0	5	96	288	2
TAP	72	0	3
TAP	72	192	2
TAP	73	0	1
TAP	73	96	1
TAP	73	192	1
TAP	74	0	0
TAP	74	96	0
TAP	74	192	0
TAP	75	0	7
TAP	75	96	7
TAP	75	192	7
TAP	76	0	0
TAP	76	0	7
TAP	76	192	0
TAP	76	192	7
TAP	77	0	0
TAP	77	0	7
TAP	77	96	0
TAP	77	96	7
TAP	77	192	0
TAP	77	192	7
TAP	78	0	7
TAP	78	192	7
TAP	79	0	6
TAP	79	96	6
TAP	79	192	6
TAP	80	0	5
TAP	80	96	5
TAP	80	192	5
TAP	81	0	4
TAP	81	96	4
TAP	81	192	4
TAP	82	0	3
TAP	82	192	3
TAP	83	0	2
TAP	83	96	2
TAP	83	192	2
TAP	84	0	1
TAP	84	96	1
TAP	84	192	1
TAP	85	0	0
TAP	85	96	0
TAP	85	192	0
TAP	86	0	6
TAP	86	0	7
TAP	86	192	6
TAP	86	192	7
TAP	87	0	5
TAP	87	96	5
TAP	87	192	5
TAP	88	0	6
TAP	88	96	6
TAP	88	192	6
TAP	89	0	7
TAP	89	96	7
TAP	89	192	7
TAP	90	0	0
TAP	90	0	1
TAP	90	192	0
TAP	90	192	1
TAP	91	0	2
TAP	91	96	2
TAP	91	192	2
TAP	92	0	1
TAP	92	96	1
TAP	92	192	1
TAP	93	0	0
TAP	93	96	0
TAP	93	192	0
TAP	94	0	0
TAP	94	0	7
TAP	95	0	1
TAP	95	0	6
TAP	96	0	2
TAP	96	0	5
TAP	97	0	3
TAP	97	0	4
BRK	98	0	3
BRK	98	0	4

T_REC_TAP	166
T_REC_BRK	3
T_REC_XTP	0
T_REC_HLD	2
T_REC_XHO	0
T_REC_STR	3
T_REC_BST	0
T_REC_XST	0
T_REC_TTP	0
T_REC_THO	0
T_REC_SLD	3
T_REC_ALL	177
T_NUM_TAP	169
T_NUM_BRK	3
T_NUM_HLD	2
T_NUM_SLD	3
T_NUM_ALL	177
T_JUDGE_TAP	172
T_JUDGE_HLD	32
T_JUDGE_SLD	3
T_JUDGE_ALL	207
TTM_EACHPAIRS	24
TTM_SCR_TAP	84500
TTM_SCR_BRK	7800
TTM_SCR_HLD	2000
TTM_SCR_SLD	4500
TTM_SCR_ALL	98800
TTM_SCR_S	95550
TTM_SCR_SS	98500
TTM_RAT_ACV	10030

