VERSION	0.00.00	1.03.00
FES_MODE	0
BPM_DEF	175.000	175.000	175.000	175.000
MET_DEF	4	4
RESOLUTION	384
CLK_DEF	384
COMPATIBLE_CODE	MA2

BPM	0	0	175.000
MET	0	0	4	4

HLD	2	0	2	144
HLD	2	144	3	144
HLD	2	288	5	144
HLD	3	48	4	144
HLD	3	192	3	192
HLD	4	0	5	144
HLD	4	144	4	144
HLD	4	288	2	144
HLD	5	48	3	144
HLD	5	192	4	192
TAP	6	0	2
TAP	6	48	3
TAP	6	96	5
TAP	6	144	4
HLD	6	192	2	144
TAP	6	288	3
TAP	6	336	3
TAP	7	48	5
TAP	7	96	2
TAP	7	144	3
HLD	7	192	5	144
TAP	7	288	4
TAP	7	336	4
TAP	8	48	2
TAP	8	96	5
TAP	8	144	4
HLD	8	192	2	144
TAP	8	288	3
TAP	8	336	3
TAP	9	48	1
TAP	9	96	2
TAP	9	144	6
TAP	9	192	5
TAP	9	240	0
TAP	9	288	1
TAP	9	288	6
HLD	10	0	0	96
HLD	10	0	5	96
HLD	10	144	2	96
HLD	10	144	7	96
STR	10	288	0
SSL	10	288	0	96	96	4
TAP	10	288	4
TAP	11	144	7
TAP	11	192	7
TAP	11	240	2
TAP	11	288	3
TAP	11	336	5
HLD	12	0	1	96
HLD	12	0	4	96
HLD	12	144	3	96
HLD	12	144	6	96
TAP	12	288	0
STR	12	288	4
SI_	12	288	4	96	48	7
TAP	13	144	7
TAP	13	192	7
TAP	13	240	5
TAP	13	288	3
TAP	13	336	1
HLD	14	0	2	96
HLD	14	0	7	96
HLD	14	144	0	96
HLD	14	144	5	96
TAP	14	288	3
TAP	14	288	7
TAP	15	0	2
TAP	15	32	3
TAP	15	64	2
TAP	15	96	5
TAP	15	128	4
TAP	15	160	5
TAP	15	192	2
TAP	15	224	3
TAP	15	256	1
TAP	15	288	5
TAP	15	320	4
TAP	15	352	6
HLD	16	0	3	96
HLD	16	0	7	96
HLD	16	144	1	96
HLD	16	144	5	96
TAP	16	288	2
TAP	16	288	6
TAP	17	0	0
STR	17	48	0
SSL	17	48	0	96	96	4
TAP	17	144	6
STR	17	192	6
SI_	17	192	6	96	48	2
TAP	18	0	3
HLD	18	0	5	48
TAP	18	48	4
HLD	18	144	2	48
TAP	18	144	4
TAP	18	192	3
TAP	18	288	3
HLD	18	288	6	48
TAP	18	336	4
HLD	19	48	1	48
TAP	19	48	4
TAP	19	96	3
STR	19	192	3
SI_	19	192	3	96	48	0
STR	19	192	7
SI_	19	192	7	96	48	4
TAP	19	240	0
TAP	19	240	4
HLD	20	0	1	48
TAP	20	0	5
TAP	20	96	3
TAP	20	144	2
TAP	20	144	4
TAP	20	240	3
TAP	20	240	5
TAP	20	288	6
TAP	20	312	4
TAP	20	360	4
HLD	21	0	5	48
TAP	21	96	4
TAP	21	144	3
TAP	21	144	5
TAP	21	240	2
TAP	21	240	4
TAP	21	288	1
TAP	21	312	3
TAP	21	360	3
HLD	22	0	2	48
TAP	22	96	5
TAP	22	144	5
HLD	22	192	4	48
TAP	22	192	6
TAP	22	240	6
TAP	22	336	3
TAP	23	0	3
HLD	23	0	4	48
TAP	23	96	2
TAP	23	144	2
TAP	23	192	1
HLD	23	192	3	48
TAP	23	240	1
TAP	23	336	0
HLD	24	0	0	48
HLD	24	0	7	48
HLD	24	96	6	48
HLD	24	96	7	48
HLD	24	192	5	48
HLD	24	192	6	48
HLD	24	288	4	48
HLD	24	288	5	48
HLD	25	0	3	48
HLD	25	0	4	48
HLD	25	96	2	48
HLD	25	96	3	48
HLD	25	192	1	48
HLD	25	192	2	48
HLD	25	288	0	48
HLD	25	288	1	48
TAP	26	0	0
TAP	26	0	7
TAP	26	48	0
TAP	26	48	1
TAP	26	96	1
TAP	26	96	2
TAP	26	144	2
TAP	26	144	3
TAP	26	192	3
TAP	26	192	4
TAP	26	240	4
TAP	26	240	5
TAP	26	288	5
TAP	26	288	6
TAP	26	336	6
TAP	26	336	7
TAP	27	0	0
TAP	27	24	0
TAP	27	48	1
TAP	27	72	7
TAP	27	96	7
TAP	27	120	6
STR	27	144	0
SI_	27	144	0	96	72	4
SSL	27	144	0	96	72	4
TAP	27	168	0
STR	28	0	2
SI_	28	0	2	96	48	6
STR	28	0	6
SI_	28	0	6	96	48	2
STR	28	192	0
SI_	28	192	0	96	48	4
STR	28	192	4
SI_	28	192	4	96	48	0
TAP	29	0	2
TAP	29	24	3
TAP	29	72	3
TAP	29	96	1
TAP	29	144	1
TAP	29	192	0
TAP	29	192	4
TAP	29	264	3
TAP	29	264	6
TAP	29	312	5
TAP	29	336	4
STR	30	0	3
SI_	30	0	3	96	48	7
STR	30	0	7
SI_	30	0	7	96	48	3
STR	30	192	1
SI_	30	192	1	96	48	5
STR	30	192	5
SI_	30	192	5	96	48	1
TAP	31	0	7
TAP	31	32	7
TAP	31	64	3
TAP	31	96	6
TAP	31	128	6
TAP	31	160	2
TAP	31	192	5
TAP	31	224	5
TAP	31	256	1
TAP	31	288	4
TAP	31	320	4
TAP	31	352	0
STR	32	0	1
SI_	32	0	1	96	48	5
STR	32	0	5
SI_	32	0	5	96	48	1
STR	32	192	3
SI_	32	192	3	96	48	7
STR	32	192	7
SI_	32	192	7	96	48	3
TAP	33	0	5
TAP	33	24	4
TAP	33	72	4
TAP	33	96	6
TAP	33	144	6
TAP	33	192	3
TAP	33	192	7
TAP	33	264	1
TAP	33	264	4
TAP	33	312	2
TAP	33	336	3
STR	34	0	0
SI_	34	0	0	96	48	4
STR	34	0	4
SI_	34	0	4	96	48	0
STR	34	192	2
SI_	34	192	2	96	48	6
STR	34	192	6
SI_	34	192	6	96	48	2
TAP	35	0	0
TAP	35	32	0
TAP	35	64	4
TAP	35	96	1
TAP	35	128	1
TAP	35	160	5
TAP	35	192	2
TAP	35	224	2
TAP	35	256	6
TAP	35	288	3
TAP	35	320	3
TAP	35	352	7
TAP	36	0	2
TAP	36	0	6
STR	36	48	1
SI_	36	48	1	96	48	4
STR	36	96	4
SCL	36	96	4	96	48	1
STR	36	144	1
SCL	36	144	1	96	48	7
STR	36	192	7
SI_	36	192	7	96	48	3
TAP	36	240	5
TAP	36	288	3
TAP	37	0	1
TAP	37	0	5
STR	37	48	6
SI_	37	48	6	96	48	3
STR	37	96	3
SCR	37	96	3	96	48	6
STR	37	144	6
SCR	37	144	6	96	48	0
STR	37	192	0
SI_	37	192	0	96	48	4
TAP	37	240	2
TAP	37	288	4
TAP	38	0	2
TAP	38	0	6
STR	38	48	1
SI_	38	48	1	96	48	4
STR	38	96	4
SCL	38	96	4	96	48	1
STR	38	144	1
SCL	38	144	1	96	48	7
STR	38	192	7
SI_	38	192	7	96	48	3
TAP	38	240	5
TAP	38	288	3
TAP	39	0	1
TAP	39	0	5
STR	39	48	6
SI_	39	48	6	96	48	2
TAP	39	96	2
TAP	39	144	6
TAP	39	192	0
TAP	39	240	0
TAP	39	240	4
TAP	39	288	1
TAP	39	288	5
TAP	39	336	2
TAP	39	336	6
STR	40	48	1
SI_	40	48	1	96	48	4
STR	40	96	4
SLL	40	96	4	96	96	7
TAP	40	144	1
STR	40	192	7
SI_	40	192	7	96	48	3
TAP	40	216	6
TAP	40	240	5
TAP	40	264	4
TAP	40	288	3
TAP	40	336	5
TAP	41	0	1
TAP	41	0	5
STR	41	48	6
SI_	41	48	6	96	48	3
STR	41	96	3
SLR	41	96	3	96	96	0
TAP	41	144	6
STR	41	192	0
SI_	41	192	0	96	48	4
TAP	41	216	1
TAP	41	240	2
TAP	41	264	3
TAP	41	288	4
TAP	41	336	2
TAP	42	0	2
TAP	42	0	6
STR	42	48	1
SI_	42	48	1	96	48	4
STR	42	96	4
SLL	42	96	4	96	96	7
TAP	42	144	1
STR	42	192	7
SI_	42	192	7	96	48	3
TAP	42	216	6
TAP	42	240	5
TAP	42	264	4
TAP	42	288	3
TAP	42	336	5
TAP	43	0	1
TAP	43	24	3
TAP	43	48	2
TAP	43	72	3
TAP	43	96	2
TAP	43	144	6
TAP	43	168	4
TAP	43	192	5
TAP	43	216	4
TAP	43	240	5
TAP	43	288	0
TAP	43	300	1
TAP	43	300	7
TAP	43	312	2
TAP	43	312	6
TAP	43	324	3
TAP	43	324	5
TAP	43	336	4
BST	44	0	2
SCL	44	0	2	96	624	6
SCL	44	0	2	96	936	4
SCL	44	0	2	96	1248	2
BST	44	0	6
SCL	44	0	6	96	624	2
SCL	44	0	6	96	936	0
SCL	44	0	6	96	1248	6
HLD	48	0	2	48
HLD	48	0	3	48
HLD	48	96	3	48
HLD	48	96	4	48
HLD	48	192	4	48
HLD	48	192	5	48
TAP	48	288	5
TAP	48	312	4
TAP	48	336	5
TAP	48	360	4
HLD	49	0	5	48
HLD	49	96	3	48
HLD	49	96	4	48
HLD	49	192	2	48
HLD	49	192	3	48
TAP	49	288	2
TAP	49	312	3
TAP	49	336	2
TAP	49	360	3
TAP	50	0	2
TAP	50	48	1
TAP	50	48	4
TAP	50	96	5
TAP	50	120	4
TAP	50	144	5
TAP	50	168	4
TAP	50	192	5
TAP	50	240	3
TAP	50	240	6
TAP	50	288	2
TAP	50	312	3
TAP	50	336	2
TAP	50	360	3
TAP	51	0	0
TAP	51	24	6
TAP	51	48	3
TAP	51	72	7
TAP	51	96	1
TAP	51	120	4
TAP	51	144	0
TAP	51	168	6
TAP	51	192	1
TAP	51	204	2
TAP	51	216	3
TAP	51	228	4
TAP	51	240	5
TAP	51	252	6
TAP	51	264	7
TAP	51	276	0
TAP	51	288	1
TAP	51	288	5
TAP	52	0	3
HLD	52	0	5	48
TAP	52	48	4
HLD	52	144	2	48
TAP	52	144	4
TAP	52	192	3
TAP	52	288	3
HLD	52	288	6	48
TAP	52	336	4
TAP	53	48	2
STR	53	48	4
SI_	53	48	4	96	48	0
STR	53	96	0
SI_	53	96	0	96	48	4
HLD	53	96	6	96
BRK	53	288	3
BRK	53	288	7
STR	54	0	1
SI_	54	0	1	96	48	5
TAP	54	48	3
TAP	54	96	1
STR	54	144	6
SI_	54	144	6	96	48	2
TAP	54	192	4
TAP	54	240	6
STR	54	288	1
SI_	54	288	1	96	48	3
TAP	54	336	4
STR	55	0	1
SI_	55	0	1	96	48	5
TAP	55	48	7
STR	55	96	1
SI_	55	96	1	96	48	3
TAP	55	144	3
STR	55	192	1
SI_	55	192	1	96	48	5
SI_	55	192	1	96	48	7
STR	56	0	6
SI_	56	0	6	96	48	2
TAP	56	48	4
TAP	56	96	6
STR	56	144	1
SI_	56	144	1	96	48	5
TAP	56	192	3
TAP	56	240	1
STR	56	288	6
SI_	56	288	6	96	48	4
TAP	56	336	3
STR	57	0	6
SI_	57	0	6	96	48	2
TAP	57	48	0
STR	57	96	6
SI_	57	96	6	96	48	4
STR	57	144	4
SLR	57	144	4	96	96	2
STR	57	192	6
SI_	57	192	6	96	48	0
STR	58	0	1
SI_	58	0	1	96	48	4
TAP	58	48	3
TAP	58	96	1
STR	58	144	6
SI_	58	144	6	96	48	3
TAP	58	192	4
TAP	58	240	6
STR	58	288	0
SI_	58	288	0	96	48	2
TAP	58	336	2
STR	59	0	0
SI_	59	0	0	96	48	4
TAP	59	48	7
STR	59	96	0
SI_	59	96	0	96	48	2
STR	59	144	2
SLL	59	144	2	96	96	4
SLL	59	144	2	96	96	6
TAP	59	192	0
STR	60	0	7
SI_	60	0	7	96	48	4
TAP	60	48	5
TAP	60	96	7
STR	60	144	0
SI_	60	144	0	96	48	3
TAP	60	192	2
TAP	60	240	0
STR	60	288	7
SCL	60	288	7	96	96	2
TAP	61	0	0
STR	61	48	0
SCR	61	48	0	96	96	5
TAP	61	144	7
STR	61	192	7
SF_	61	192	7	96	48	3
STR	62	0	1
SI_	62	0	1	96	48	4
STR	62	0	5
SI_	62	0	5	96	48	0
TAP	62	96	1
TAP	62	96	5
TAP	62	192	2
TAP	62	192	6
STR	62	240	1
SCR	62	240	1	96	48	4
STR	62	240	5
SCR	62	240	5	96	48	0
TAP	62	288	0
TAP	62	288	4
STR	62	336	1
SUL	62	336	1	96	48	5
STR	62	336	5
SUL	62	336	5	96	48	1
STR	63	48	1
SCL	63	48	1	96	72	3
TAP	63	48	5
TAP	63	144	1
TAP	63	240	0
TAP	63	288	1
TAP	63	288	7
TAP	63	336	2
TAP	63	336	6
STR	64	0	4
SI_	64	0	4	96	48	6
STR	64	48	1
SI_	64	48	1	96	48	5
STR	64	96	4
SI_	64	96	4	96	48	0
STR	64	144	1
SI_	64	144	1	96	48	3
TAP	64	192	4
TAP	64	240	1
TAP	64	288	7
TAP	64	336	7
TAP	65	0	3
TAP	65	0	6
TAP	65	48	3
TAP	65	48	6
TAP	65	64	2
TAP	65	64	5
TAP	65	80	1
TAP	65	80	4
TAP	65	96	0
TAP	65	96	3
TAP	65	144	1
TAP	65	144	4
TAP	65	160	2
TAP	65	160	5
TAP	65	176	3
TAP	65	176	6
STR	65	192	4
SF_	65	192	4	96	48	0
TAP	65	192	7
TAP	65	288	4
STR	66	0	2
SI_	66	0	2	96	48	7
STR	66	0	6
SI_	66	0	6	96	48	3
TAP	66	96	2
TAP	66	96	6
HLD	66	192	1	24
HLD	66	192	5	96
HLD	66	288	7	48
HLD	66	336	6	48
HLD	67	0	4	48
HLD	67	48	3	96
BRK	67	144	0
BRK	67	192	0
TAP	67	288	0
TAP	67	288	6
TAP	67	336	1
TAP	67	336	5
STR	68	0	3
SI_	68	0	3	96	48	1
STR	68	48	6
SI_	68	48	6	96	48	2
STR	68	96	3
SI_	68	96	3	96	48	7
STR	68	144	6
SI_	68	144	6	96	48	4
TAP	68	192	3
TAP	68	240	6
TAP	68	288	0
TAP	68	336	0
TAP	69	0	1
TAP	69	0	4
TAP	69	48	1
TAP	69	48	4
TAP	69	64	2
TAP	69	64	5
TAP	69	80	3
TAP	69	80	6
TAP	69	96	4
TAP	69	96	7
TAP	69	144	3
TAP	69	144	6
TAP	69	160	2
TAP	69	160	5
TAP	69	176	1
TAP	69	176	4
TAP	69	192	0
STR	69	192	3
SF_	69	192	3	96	48	7
TAP	69	288	3
STR	70	0	1
SI_	70	0	1	96	48	5
TAP	70	48	0
STR	70	96	1
SLR	70	96	1	96	144	7
TAP	70	144	7
STR	70	192	6
SI_	70	192	6	96	48	4
TAP	70	240	5
TAP	70	288	6
STR	71	0	6
SI_	71	0	6	96	48	2
TAP	71	48	7
STR	71	96	6
SLL	71	96	6	96	144	0
TAP	71	144	0
STR	71	192	1
SI_	71	192	1	96	48	3
TAP	71	240	2
TAP	71	288	1
STR	72	0	1
SI_	72	0	1	96	48	5
TAP	72	48	0
STR	72	96	1
SLR	72	96	1	96	144	7
TAP	72	144	7
STR	72	192	6
SI_	72	192	6	96	48	4
TAP	72	240	5
TAP	72	288	6
STR	73	0	6
SI_	73	0	6	96	48	2
TAP	73	48	7
TAP	73	96	0
TAP	73	96	6
TAP	73	192	1
TAP	73	240	1
TAP	73	240	7
TAP	73	288	0
TAP	73	288	6
TAP	73	336	5
TAP	73	336	7
TAP	74	48	3
TAP	74	48	4
TAP	74	96	2
TAP	74	96	5
STR	74	192	0
SV_	74	192	0	96	48	3
STR	74	192	6
SV_	74	192	6	96	48	3
TAP	74	288	0
TAP	74	288	6
STR	75	0	1
SV_	75	0	1	96	48	4
STR	75	0	5
SV_	75	0	5	96	48	0
TAP	75	12	2
TAP	75	24	3
TAP	75	36	4
TAP	75	48	5
TAP	75	60	6
TAP	75	72	7
TAP	75	84	0
TAP	75	96	1
TAP	75	192	2
TAP	75	192	6
TAP	75	288	3
TAP	75	288	7
TAP	75	336	2
TAP	75	336	6
TAP	76	0	1
TAP	76	0	5
TAP	76	96	0
TAP	76	96	4
TAP	76	144	2
TAP	76	144	6
TAP	76	240	3
TAP	76	240	7
TAP	76	288	1
TAP	76	288	5
TAP	77	0	1
HLD	77	0	5	24
TAP	77	48	2
HLD	77	48	6	24
TAP	77	96	3
HLD	77	96	7	24
HLD	77	144	0	24
TAP	77	144	4
HLD	77	192	1	48
HLD	77	192	5	48
TAP	77	288	1
TAP	77	288	5
TAP	77	300	0
TAP	77	300	4
TAP	77	312	3
TAP	77	312	7
TAP	77	324	2
TAP	77	324	6
TAP	77	336	1
TAP	77	336	5
TAP	77	348	0
TAP	77	348	4
TAP	77	360	3
TAP	77	360	7
TAP	77	372	2
TAP	77	372	6
BRK	78	0	1
BRK	78	0	5
STR	78	96	0
SI_	78	96	0	96	48	4
TAP	78	144	4
STR	78	192	0
SF_	78	192	0	96	48	4
TAP	79	0	2
TAP	79	0	6
TAP	79	48	2
STR	79	48	6
SI_	79	48	6	96	48	2
TAP	79	144	0
STR	79	192	0
SSL	79	192	0	96	48	4
TAP	79	288	4
TAP	80	0	2
TAP	80	0	6
STR	80	96	1
SLR	80	96	1	96	96	7
TAP	80	96	5
TAP	80	144	0
TAP	80	192	1
STR	80	192	7
SI_	80	192	7	96	48	2
SI_	80	192	7	96	48	4
HLD	81	0	1	144
HLD	81	0	5	48
HLD	81	144	7	48
HLD	81	192	1	48
HLD	81	240	3	48
HLD	81	288	5	48
TAP	81	336	7
TAP	82	0	3
TAP	82	0	7
STR	82	96	2
SXR	82	96	2	96	144	7
TAP	82	96	4
TAP	82	144	5
TAP	82	192	2
STR	82	192	6
SI_	82	192	6	96	48	3
TAP	82	288	6
TAP	83	0	1
TAP	83	32	3
TAP	83	64	2
TAP	83	96	6
TAP	83	128	4
TAP	83	160	5
TAP	83	192	0
TAP	83	224	2
TAP	83	256	1
TAP	83	288	7
TAP	83	320	5
TAP	83	352	6
TAP	84	0	0
HLD	84	0	4	96
TAP	84	48	1
TAP	84	96	2
HLD	84	144	3	96
TAP	84	144	7
TAP	84	192	6
TAP	84	240	5
TAP	84	288	0
TAP	84	288	4
TAP	85	0	1
HLD	85	0	7	24
TAP	85	12	2
TAP	85	24	3
HLD	85	72	0	24
TAP	85	72	6
TAP	85	84	5
TAP	85	96	4
TAP	85	144	0
TAP	85	144	7
TAP	85	192	1
HLD	85	192	6	72
TAP	85	264	4
TAP	85	288	5
TAP	85	312	3
TAP	85	336	4
BRK	85	360	4

T_REC_TAP	482
T_REC_BRK	7
T_REC_XTP	0
T_REC_HLD	93
T_REC_XHO	0
T_REC_STR	112
T_REC_BST	2
T_REC_XST	0
T_REC_TTP	0
T_REC_THO	0
T_REC_SLD	122
T_REC_ALL	818
T_NUM_TAP	594
T_NUM_BRK	9
T_NUM_HLD	93
T_NUM_SLD	122
T_NUM_ALL	818
T_JUDGE_TAP	603
T_JUDGE_HLD	145
T_JUDGE_SLD	122
T_JUDGE_ALL	870
TTM_EACHPAIRS	161
TTM_SCR_TAP	297000
TTM_SCR_BRK	23400
TTM_SCR_HLD	93000
TTM_SCR_SLD	183000
TTM_SCR_ALL	596400
TTM_SCR_S	577650
TTM_SCR_SS	595500
TTM_RAT_ACV	10015

