VERSION	0.00.00	1.03.00
FES_MODE	0
BPM_DEF	175.000	175.000	175.000	175.000
MET_DEF	4	4
RESOLUTION	384
CLK_DEF	384
COMPATIBLE_CODE	MA2

BPM	0	0	175.000
MET	0	0	4	4

HLD	6	0	0	144
HLD	6	144	1	144
HLD	6	288	5	144
HLD	7	48	4	144
TAP	7	192	0
HLD	8	0	7	144
HLD	8	144	6	144
HLD	8	288	2	144
HLD	9	48	3	144
TAP	9	192	7
TAP	9	288	3
TAP	9	288	4
TAP	10	0	0
HLD	10	0	4	288
TAP	10	144	5
TAP	10	288	3
TAP	11	0	1
TAP	11	0	6
HLD	11	96	2	48
HLD	11	144	1	48
HLD	11	192	0	48
HLD	11	240	7	48
HLD	11	288	6	48
TAP	11	336	5
HLD	12	0	3	288
TAP	12	0	7
TAP	12	144	2
TAP	12	288	4
TAP	13	0	1
TAP	13	0	6
HLD	13	144	5	48
HLD	13	192	6	48
HLD	13	240	7	48
HLD	13	288	0	48
TAP	13	336	1
HLD	14	0	1	96
HLD	14	0	2	96
HLD	14	144	4	96
HLD	14	144	7	96
HLD	14	288	0	96
HLD	14	288	3	96
HLD	15	48	5	96
HLD	15	48	6	96
STR	15	192	3
SV_	15	192	3	96	48	0
STR	15	192	4
SV_	15	192	4	96	48	7
TAP	15	288	3
TAP	15	288	4
HLD	16	0	0	240
HLD	16	0	6	96
HLD	16	144	2	144
TAP	16	288	4
TAP	17	0	3
TAP	17	0	6
TAP	17	48	3
STR	17	48	6
SI_	17	48	6	96	48	3
TAP	17	144	1
TAP	17	144	6
TAP	17	192	1
TAP	17	288	0
TAP	17	288	7
HLD	18	0	0	96
HLD	18	0	4	96
HLD	18	144	2	96
HLD	18	144	6	96
HLD	18	288	0	96
HLD	18	288	2	96
HLD	19	48	5	96
HLD	19	48	7	96
STR	19	192	0
SV_	19	192	0	96	48	2
STR	19	192	4
SV_	19	192	4	96	48	6
BRK	19	288	0
BRK	19	288	4
HLD	20	0	1	144
TAP	20	96	3
TAP	20	144	6
TAP	20	240	2
TAP	20	240	7
TAP	20	288	4
TAP	20	312	5
TAP	20	336	4
HLD	21	0	6	144
TAP	21	96	4
TAP	21	144	1
TAP	21	240	0
TAP	21	240	5
TAP	21	288	3
TAP	21	312	2
TAP	21	336	3
TAP	22	0	1
TAP	22	0	5
STR	22	96	1
SCR	22	96	1	96	48	4
STR	22	144	0
SCL	22	144	0	96	48	5
TAP	22	336	2
TAP	22	336	6
TAP	23	0	2
TAP	23	0	6
STR	23	96	6
SCL	23	96	6	96	48	3
STR	23	144	7
SCR	23	144	7	96	48	2
TAP	23	336	0
STR	24	0	0
SI_	24	0	0	96	48	3
TAP	24	0	7
TAP	24	96	0
STR	24	96	7
SI_	24	96	7	96	48	4
STR	24	192	0
SV_	24	192	0	96	48	5
TAP	24	192	7
TAP	24	288	0
STR	24	288	7
SV_	24	288	7	96	48	2
STR	25	0	0
SCR	25	0	0	96	48	3
TAP	25	0	7
TAP	25	96	0
STR	25	96	7
SCL	25	96	7	96	48	4
TAP	25	192	0
TAP	25	192	7
TAP	25	288	1
TAP	25	288	6
STR	26	0	0
SI_	26	0	0	96	48	2
STR	26	48	7
SI_	26	48	7	96	48	5
STR	26	96	0
SI_	26	96	0	96	48	4
STR	26	144	7
SI_	26	144	7	96	48	3
STR	26	192	0
SCR	26	192	0	96	48	2
STR	26	240	7
SCL	26	240	7	96	48	5
TAP	27	0	3
TAP	27	24	4
TAP	27	48	2
TAP	27	72	5
TAP	27	96	1
TAP	27	120	6
TAP	27	144	0
TAP	27	168	7
BRK	27	288	1
BRK	27	288	6
STR	28	0	0
SUR	28	0	0	96	96	3
STR	28	192	6
SUL	28	192	6	96	96	3
TAP	29	0	2
TAP	29	72	3
TAP	29	144	2
TAP	29	192	0
TAP	29	192	5
TAP	29	264	1
TAP	29	264	4
TAP	29	312	7
TAP	29	336	6
STR	30	0	1
SUR	30	0	1	96	96	4
STR	30	192	7
SUL	30	192	7	96	96	4
HLD	31	0	3	192
TAP	31	144	4
TAP	31	192	7
TAP	31	264	0
TAP	31	264	7
TAP	31	312	1
TAP	31	336	6
STR	32	0	0
SSL	32	0	0	96	96	4
STR	32	192	5
SCR	32	192	5	96	96	2
TAP	33	0	3
TAP	33	72	4
TAP	33	144	3
TAP	33	192	1
TAP	33	192	6
TAP	33	264	2
TAP	33	264	5
TAP	33	312	0
TAP	33	336	7
STR	34	0	1
SSR	34	0	1	96	48	5
TAP	34	192	3
TAP	34	192	7
TAP	34	288	7
TAP	34	336	7
TAP	35	0	2
TAP	35	32	3
TAP	35	64	2
TAP	35	96	5
TAP	35	128	4
TAP	35	160	5
TAP	35	192	1
TAP	35	224	0
TAP	35	256	1
TAP	35	288	6
TAP	35	320	7
TAP	35	352	6
BRK	36	0	0
TAP	36	48	1
TAP	36	96	0
TAP	36	192	6
TAP	36	216	7
TAP	36	240	6
TAP	36	288	0
TAP	36	288	5
TAP	36	336	1
TAP	36	360	0
TAP	37	48	6
TAP	37	96	7
TAP	37	192	1
TAP	37	216	0
TAP	37	240	1
TAP	37	288	2
TAP	37	288	7
TAP	37	336	6
TAP	37	360	7
TAP	38	48	2
TAP	38	48	3
TAP	38	96	4
TAP	38	96	5
TAP	38	192	3
TAP	38	216	4
TAP	38	240	3
TAP	38	288	1
TAP	38	288	6
TAP	38	336	0
TAP	38	360	7
TAP	39	48	7
TAP	39	96	0
TAP	39	192	0
TAP	39	192	4
TAP	39	240	1
TAP	39	240	5
TAP	39	288	2
TAP	39	288	6
TAP	39	336	3
TAP	39	336	7
TAP	40	48	0
TAP	40	48	4
TAP	40	96	2
TAP	40	96	6
TAP	40	192	1
STR	40	192	4
SI_	40	192	4	96	48	0
TAP	40	216	2
TAP	40	216	5
TAP	40	240	3
TAP	40	240	6
TAP	40	288	7
TAP	40	336	7
TAP	41	48	3
TAP	41	48	7
TAP	41	96	1
TAP	41	96	5
STR	41	192	3
SI_	41	192	3	96	48	7
TAP	41	192	6
TAP	41	216	2
TAP	41	216	5
TAP	41	240	1
TAP	41	240	4
TAP	41	288	0
TAP	41	336	0
TAP	42	48	0
TAP	42	48	2
TAP	42	96	4
TAP	42	96	6
TAP	42	192	1
STR	42	192	4
SI_	42	192	4	96	48	0
TAP	42	216	2
TAP	42	216	5
TAP	42	240	3
TAP	42	240	6
TAP	42	288	7
TAP	42	336	7
TAP	43	48	2
TAP	43	48	5
TAP	43	192	1
TAP	43	192	6
BRK	43	288	0
STR	43	288	7
SUR	43	288	7	96	48	3
STR	44	0	3
SUR	44	0	3	96	48	7
STR	44	96	7
SUR	44	96	7	96	48	3
STR	44	192	3
SUR	44	192	3	96	48	7
STR	44	288	7
SUR	44	288	7	96	48	3
STR	45	0	3
SCR	45	0	3	96	48	7
STR	45	96	7
SCR	45	96	7	96	48	3
STR	45	192	3
SUR	45	192	3	96	48	7
STR	46	0	0
SUR	46	0	0	96	48	4
STR	46	96	4
SUR	46	96	4	96	48	0
STR	46	192	0
SCR	46	192	0	96	48	4
STR	46	288	4
SCR	46	288	4	96	48	0
STR	47	0	0
SI_	47	0	0	96	48	4
TAP	47	192	6
TAP	47	240	7
TAP	47	288	0
TAP	47	336	1
TAP	48	0	6
TAP	48	48	6
TAP	48	96	7
TAP	48	144	7
TAP	48	192	0
TAP	48	240	0
TAP	48	288	1
TAP	48	312	2
TAP	48	336	3
TAP	48	360	4
TAP	49	0	7
TAP	49	48	7
TAP	49	96	0
TAP	49	144	0
TAP	49	192	6
TAP	49	240	1
TAP	49	288	0
TAP	49	288	7
TAP	49	336	1
TAP	49	360	6
TAP	50	0	0
TAP	50	48	1
TAP	50	48	6
TAP	50	96	0
TAP	50	120	1
TAP	50	144	2
TAP	50	168	3
TAP	50	192	7
TAP	50	240	1
TAP	50	240	6
TAP	50	288	7
TAP	50	312	6
TAP	50	336	5
TAP	50	360	4
TAP	51	0	0
TAP	51	24	1
TAP	51	48	2
TAP	51	72	3
TAP	51	96	4
TAP	51	120	5
TAP	51	144	6
TAP	51	168	7
TAP	51	192	0
TAP	51	208	1
TAP	51	224	2
TAP	51	240	3
TAP	51	256	4
TAP	51	272	5
BRK	51	288	6
HLD	52	0	2	96
HLD	52	0	3	96
HLD	52	144	3	96
HLD	52	144	4	96
HLD	52	288	4	96
HLD	52	288	5	96
TAP	53	48	1
TAP	53	48	6
TAP	53	96	0
TAP	53	96	7
TAP	53	192	3
TAP	53	216	4
TAP	53	240	3
BRK	53	288	1
BRK	53	288	6
HLD	54	0	0	96
HLD	54	0	4	288
HLD	54	144	5	96
TAP	54	288	3
TAP	55	48	2
TAP	55	48	7
TAP	55	96	0
STR	55	96	1
SI_	55	96	1	96	48	5
STR	55	192	0
SI_	55	192	0	96	48	4
TAP	55	192	1
TAP	55	288	0
HLD	56	0	3	288
HLD	56	0	7	96
HLD	56	144	2	96
TAP	56	288	4
TAP	57	48	0
TAP	57	48	5
STR	57	96	6
SI_	57	96	6	96	48	2
TAP	57	96	7
TAP	57	192	6
STR	57	192	7
SI_	57	192	7	96	48	3
TAP	57	288	7
HLD	58	0	3	96
HLD	58	0	7	288
HLD	58	144	0	96
TAP	58	288	6
TAP	59	48	1
TAP	59	48	4
STR	59	96	2
SI_	59	96	2	96	48	7
TAP	59	96	3
TAP	59	192	2
STR	59	192	3
SI_	59	192	3	96	48	6
TAP	59	288	3
HLD	60	0	0	288
HLD	60	0	4	96
HLD	60	144	7	96
TAP	60	288	1
TAP	61	48	3
TAP	61	48	6
TAP	61	96	4
STR	61	96	5
SI_	61	96	5	96	48	0
STR	61	192	4
SI_	61	192	4	96	48	1
TAP	61	192	5
TAP	61	288	4
STR	62	0	0
SI_	62	0	0	96	48	4
STR	62	0	7
SI_	62	0	7	96	48	3
TAP	62	96	0
TAP	62	96	7
TAP	62	240	1
TAP	62	240	2
TAP	62	288	0
TAP	62	288	7
STR	62	336	5
SI_	62	336	5	96	48	0
STR	62	336	6
SI_	62	336	6	96	48	3
STR	63	144	1
SI_	63	144	1	96	48	5
TAP	63	192	0
TAP	63	240	7
STR	63	288	6
SI_	63	288	6	96	48	2
TAP	63	336	7
TAP	64	0	0
TAP	64	144	2
TAP	64	144	5
STR	64	240	1
SI_	64	240	1	96	47	5
STR	64	288	5
SI_	64	288	5	96	48	1
STR	64	336	1
SCR	64	336	1	96	48	4
STR	65	0	5
SCR	65	0	5	96	48	0
STR	65	192	3
SI_	65	192	3	96	48	0
STR	65	192	7
SI_	65	192	7	96	48	4
TAP	65	288	3
TAP	65	288	7
TAP	66	0	2
TAP	66	0	6
TAP	66	96	0
TAP	66	96	4
TAP	66	192	0
TAP	66	192	2
TAP	66	240	4
TAP	66	240	6
TAP	66	288	6
TAP	66	288	7
TAP	66	336	2
TAP	66	336	3
TAP	67	0	0
TAP	67	0	7
TAP	67	48	3
TAP	67	48	4
BRK	67	144	0
BRK	67	192	0
TAP	67	288	1
TAP	67	288	5
HLD	68	0	2	144
HLD	68	144	3	96
TAP	68	240	4
TAP	68	288	5
STR	68	336	4
SI_	68	336	4	96	48	1
STR	69	0	5
SI_	69	0	5	96	48	0
TAP	69	48	4
TAP	69	96	5
BRK	69	192	7
BRK	69	288	7
STR	70	48	1
SI_	70	48	1	96	48	5
STR	70	96	4
SV_	70	96	4	96	48	2
TAP	70	144	1
TAP	70	192	4
TAP	70	288	0
TAP	70	336	0
STR	71	48	6
SI_	71	48	6	96	48	2
STR	71	96	3
SV_	71	96	3	96	48	5
TAP	71	144	6
TAP	71	192	3
TAP	71	288	7
TAP	71	336	7
STR	72	48	0
SV_	72	48	0	96	48	2
STR	72	96	3
SI_	72	96	3	96	48	7
TAP	72	144	0
TAP	72	192	3
TAP	72	288	0
TAP	72	336	0
STR	73	48	7
SV_	73	48	7	96	48	5
STR	73	96	4
SI_	73	96	4	96	48	0
TAP	73	144	7
TAP	73	192	4
TAP	73	240	6
TAP	73	288	0
TAP	73	336	2
TAP	74	48	2
TAP	74	96	3
TAP	74	144	4
TAP	74	192	5
TAP	74	288	6
STR	74	288	7
SI_	74	288	7	96	48	3
STR	75	0	0
SI_	75	0	0	96	48	4
TAP	75	0	7
TAP	75	96	0
STR	75	96	1
SI_	75	96	1	96	48	5
BRK	75	192	1
TAP	75	288	0
TAP	75	288	4
TAP	75	336	3
TAP	75	336	7
TAP	76	0	2
TAP	76	0	6
TAP	76	96	0
TAP	76	96	4
TAP	76	144	2
TAP	76	144	6
TAP	76	240	3
TAP	76	240	7
TAP	76	288	1
TAP	76	288	5
TAP	77	0	1
TAP	77	0	5
TAP	77	48	2
TAP	77	48	6
TAP	77	96	3
TAP	77	96	7
TAP	77	192	3
TAP	77	192	7
TAP	77	240	3
TAP	77	240	7
TAP	77	288	3
TAP	77	288	7
TAP	77	312	2
TAP	77	312	6
TAP	77	336	1
TAP	77	336	5
TAP	77	360	0
TAP	77	360	4
BRK	78	0	3
BRK	78	0	7
STR	78	96	2
SUL	78	96	2	96	48	5
TAP	78	144	3
TAP	78	192	2
TAP	78	288	4
TAP	79	0	5
TAP	79	0	6
STR	79	96	6
SCR	79	96	6	96	48	1
TAP	79	144	5
TAP	79	192	6
TAP	79	288	2
HLD	80	0	1	96
HLD	80	0	7	96
HLD	80	144	3	96
HLD	80	144	5	96
STR	80	288	0
SV_	80	288	0	96	48	2
STR	80	288	4
SV_	80	288	4	96	48	6
TAP	81	0	0
TAP	81	0	4
HLD	81	144	2	48
HLD	81	192	3	48
HLD	81	240	4	48
TAP	81	288	5
TAP	81	336	0
TAP	81	336	7
HLD	82	0	0	96
HLD	82	0	6	96
HLD	82	144	2	96
HLD	82	144	4	96
STR	82	288	3
SUL	82	288	3	96	144	7
STR	82	288	7
SUL	82	288	7	96	144	3
STR	83	192	3
SCR	83	192	3	96	48	6
STR	83	192	7
SCR	83	192	7	96	48	2
TAP	83	288	3
TAP	83	288	7
HLD	84	0	4	96
HLD	84	0	6	96
HLD	84	144	1	96
HLD	84	144	3	96
BRK	84	288	2
BRK	84	288	5
TAP	85	0	2
TAP	85	0	5
TAP	85	72	1
TAP	85	72	6
TAP	85	144	0
TAP	85	144	7
TAP	85	192	1
TAP	85	192	6
TAP	85	264	0
TAP	85	264	7
TAP	85	312	3
TAP	85	336	4
STR	86	0	1
SCL	86	0	1	96	384	2

T_REC_TAP	384
T_REC_BRK	18
T_REC_XTP	0
T_REC_HLD	76
T_REC_XHO	0
T_REC_STR	86
T_REC_BST	0
T_REC_XST	0
T_REC_TTP	0
T_REC_THO	0
T_REC_SLD	86
T_REC_ALL	650
T_NUM_TAP	470
T_NUM_BRK	18
T_NUM_HLD	76
T_NUM_SLD	86
T_NUM_ALL	650
T_JUDGE_TAP	488
T_JUDGE_HLD	181
T_JUDGE_SLD	86
T_JUDGE_ALL	755
TTM_EACHPAIRS	150
TTM_SCR_TAP	235000
TTM_SCR_BRK	46800
TTM_SCR_HLD	76000
TTM_SCR_SLD	129000
TTM_SCR_ALL	486800
TTM_SCR_S	470450
TTM_SCR_SS	485000
TTM_RAT_ACV	10037

