VERSION	0.00.00	1.03.00
FES_MODE	0
BPM_DEF	175.000	175.000	175.000	175.000
MET_DEF	4	4
RESOLUTION	384
CLK_DEF	384
COMPATIBLE_CODE	MA2

BPM	0	0	175.000
MET	0	0	4	4

STR	10	0	1
SI_	10	0	1	96	48	3
STR	10	144	7
SI_	10	144	7	96	48	5
STR	10	288	0
SI_	10	288	0	96	48	4
TAP	11	96	3
TAP	11	96	5
TAP	11	192	2
TAP	11	192	4
TAP	11	288	0
TAP	11	288	7
STR	12	0	6
SI_	12	0	6	96	48	4
STR	12	144	0
SI_	12	144	0	96	48	2
STR	12	288	7
SI_	12	288	7	96	48	3
TAP	13	96	2
TAP	13	96	4
TAP	13	192	3
TAP	13	192	5
TAP	13	288	0
TAP	13	288	7
STR	14	0	1
SI_	14	0	1	96	48	5
STR	14	144	7
SI_	14	144	7	96	48	3
STR	14	288	0
SI_	14	288	0	96	48	4
TAP	15	96	3
TAP	15	96	6
TAP	15	192	1
TAP	15	192	4
TAP	15	288	0
TAP	15	288	7
STR	16	0	6
SI_	16	0	6	96	48	2
STR	16	144	0
SI_	16	144	0	96	48	4
STR	16	288	7
SI_	16	288	7	96	48	3
TAP	17	96	1
TAP	17	96	4
TAP	17	192	3
TAP	17	192	6
TAP	17	288	0
TAP	17	288	7
STR	18	0	7
SI_	18	0	7	96	48	2
STR	18	144	1
SI_	18	144	1	96	48	4
STR	18	288	6
SI_	18	288	6	96	48	3
STR	19	48	0
SI_	19	48	0	96	48	5
STR	19	192	7
SI_	19	192	7	96	48	3
BRK	19	288	0
HLD	20	0	1	96
HLD	20	0	4	96
HLD	20	144	3	96
HLD	20	144	6	96
TAP	20	288	2
TAP	20	288	5
HLD	21	0	3	96
HLD	21	0	6	96
HLD	21	144	1	96
HLD	21	144	4	96
TAP	21	288	0
TAP	21	288	7
HLD	22	0	2	96
HLD	22	0	3	96
TAP	22	144	4
TAP	22	144	5
HLD	22	192	4	96
HLD	22	192	5	96
TAP	22	336	6
TAP	22	336	7
HLD	23	0	6	96
HLD	23	0	7	96
TAP	23	144	0
TAP	23	144	1
HLD	23	192	0	96
HLD	23	192	1	96
TAP	23	336	2
TAP	23	336	3
TAP	24	0	2
TAP	24	0	3
TAP	24	96	4
TAP	24	96	5
TAP	24	192	1
TAP	24	192	3
TAP	24	288	4
TAP	24	288	6
TAP	25	0	0
TAP	25	0	2
TAP	25	96	5
TAP	25	96	7
TAP	25	192	0
TAP	25	192	1
TAP	25	288	6
TAP	25	288	7
TAP	26	0	0
TAP	26	48	0
TAP	26	96	7
TAP	26	144	7
TAP	26	192	1
TAP	26	240	1
TAP	26	288	6
TAP	26	336	6
TAP	27	0	0
TAP	27	24	7
TAP	27	48	0
TAP	27	72	7
TAP	27	96	0
TAP	27	120	7
TAP	27	144	0
TAP	27	168	7
TAP	27	192	0
BRK	27	288	1
BRK	27	288	6
HLD	28	0	2	96
HLD	28	96	3	96
HLD	28	192	1	96
TAP	28	288	0
TAP	28	336	0
TAP	29	0	2
TAP	29	0	7
TAP	29	96	0
TAP	29	96	5
TAP	29	192	1
TAP	29	192	6
HLD	30	0	1	96
HLD	30	96	0	96
HLD	30	192	2	96
TAP	30	288	3
TAP	30	336	3
TAP	31	0	1
TAP	31	0	4
TAP	31	96	3
TAP	31	96	6
TAP	31	192	2
TAP	31	192	5
TAP	31	288	0
TAP	31	288	7
HLD	32	0	5	96
HLD	32	96	4	96
HLD	32	192	6	96
TAP	32	288	7
TAP	32	336	7
TAP	33	0	0
TAP	33	0	5
TAP	33	96	2
TAP	33	96	7
TAP	33	192	1
TAP	33	192	6
HLD	34	0	6	96
HLD	34	96	7	96
HLD	34	192	5	96
TAP	34	288	4
TAP	34	336	4
TAP	35	0	3
TAP	35	0	6
TAP	35	96	1
TAP	35	96	4
TAP	35	192	2
TAP	35	192	5
TAP	35	288	0
TAP	35	288	7
TAP	36	48	2
TAP	36	48	3
TAP	36	96	2
TAP	36	96	3
HLD	36	192	1	96
TAP	36	288	0
TAP	36	336	0
TAP	37	48	4
TAP	37	48	5
TAP	37	96	4
TAP	37	96	5
HLD	37	192	6	96
TAP	37	288	7
TAP	37	336	7
TAP	38	48	1
TAP	38	48	5
TAP	38	96	1
TAP	38	96	5
HLD	38	192	0	96
TAP	38	288	7
TAP	38	336	7
TAP	39	48	3
TAP	39	48	4
TAP	39	96	3
TAP	39	96	4
TAP	39	192	0
TAP	39	192	1
TAP	39	240	0
STR	39	240	1
SI_	39	240	1	96	48	5
TAP	40	48	6
TAP	40	48	7
TAP	40	96	6
TAP	40	96	7
HLD	40	192	5	96
TAP	40	288	4
TAP	40	336	3
TAP	40	336	6
TAP	41	48	0
TAP	41	48	1
TAP	41	96	0
TAP	41	96	1
HLD	41	192	2	96
TAP	41	288	3
TAP	41	336	1
TAP	41	336	4
TAP	42	48	2
TAP	42	48	6
TAP	42	96	2
TAP	42	96	6
HLD	42	192	7	96
TAP	42	288	0
TAP	42	336	1
TAP	42	336	6
TAP	43	48	3
TAP	43	48	4
TAP	43	96	3
TAP	43	96	4
STR	43	192	0
SCR	43	192	0	96	72	3
STR	43	192	7
SCL	43	192	7	96	72	4
STR	46	0	0
SV_	46	0	0	96	72	2
STR	46	192	6
SV_	46	192	6	96	72	4
STR	47	0	3
SV_	47	0	3	96	72	1
STR	47	192	5
SV_	47	192	5	96	72	7
TAP	48	0	0
TAP	48	96	1
TAP	48	96	7
TAP	48	192	2
TAP	48	288	1
TAP	48	288	3
TAP	49	0	5
TAP	49	96	4
TAP	49	96	6
TAP	49	192	7
TAP	49	288	0
TAP	49	288	6
TAP	50	0	1
TAP	50	48	1
TAP	50	96	4
TAP	50	144	4
TAP	50	192	3
TAP	50	240	3
TAP	50	288	6
TAP	50	336	6
TAP	51	0	2
TAP	51	32	2
TAP	51	64	2
TAP	51	96	4
TAP	51	128	4
TAP	51	160	4
TAP	51	192	3
TAP	51	224	3
TAP	51	256	3
BRK	51	288	5
STR	52	0	0
SI_	52	0	0	96	48	5
STR	52	144	6
SI_	52	144	6	96	48	3
STR	52	288	1
SI_	52	288	1	96	48	4
STR	53	48	7
SI_	53	48	7	96	48	2
STR	53	192	0
SI_	53	192	0	96	48	4
BRK	53	288	7
TAP	54	0	5
TAP	54	48	4
TAP	54	48	6
TAP	54	144	2
TAP	54	192	1
TAP	54	192	3
TAP	54	288	0
TAP	54	336	1
TAP	54	336	7
TAP	55	48	4
TAP	55	48	5
TAP	55	144	2
TAP	55	144	7
STR	55	192	2
SI_	55	192	2	96	48	0
STR	55	192	7
SI_	55	192	7	96	48	3
TAP	56	0	2
TAP	56	48	1
TAP	56	48	3
TAP	56	144	5
TAP	56	192	4
TAP	56	192	6
TAP	56	288	7
TAP	56	336	0
TAP	56	336	6
TAP	57	48	2
TAP	57	48	3
TAP	57	144	0
TAP	57	144	5
STR	57	192	0
SI_	57	192	0	96	48	4
STR	57	192	5
SI_	57	192	5	96	48	7
TAP	58	0	6
TAP	58	48	5
TAP	58	48	7
TAP	58	144	1
TAP	58	192	0
TAP	58	192	2
TAP	58	288	3
TAP	58	288	4
TAP	58	336	3
TAP	58	336	4
TAP	59	48	0
TAP	59	48	7
TAP	59	144	1
TAP	59	144	5
STR	59	192	1
SI_	59	192	1	96	48	6
STR	59	192	5
SI_	59	192	5	96	48	2
TAP	60	0	3
TAP	60	0	7
TAP	60	48	3
TAP	60	48	7
TAP	60	144	0
TAP	60	144	4
TAP	60	192	0
TAP	60	192	4
TAP	60	288	1
TAP	60	288	5
TAP	60	336	1
TAP	60	336	5
STR	61	48	2
SCL	61	48	2	96	144	5
STR	62	0	7
SI_	62	0	7	96	48	3
TAP	62	96	0
TAP	62	240	2
TAP	62	288	3
TAP	62	336	2
TAP	63	48	1
TAP	63	48	4
TAP	63	144	3
TAP	63	144	6
TAP	63	192	2
TAP	63	240	5
TAP	63	288	1
TAP	63	336	6
HLD	64	0	0	144
HLD	64	144	7	96
TAP	64	240	0
TAP	64	288	6
TAP	64	336	1
TAP	65	0	5
TAP	65	48	2
HLD	65	96	4	144
TAP	65	240	3
TAP	65	288	4
TAP	65	336	2
TAP	66	0	5
TAP	66	96	1
TAP	66	96	6
TAP	66	192	0
TAP	66	192	7
TAP	66	288	1
TAP	66	288	6
TAP	66	336	1
TAP	66	336	6
TAP	67	48	3
TAP	67	48	4
TAP	67	144	0
TAP	67	144	7
TAP	67	192	0
TAP	67	192	7
TAP	67	288	1
TAP	67	336	6
HLD	68	0	0	144
HLD	68	144	7	96
TAP	68	240	1
TAP	68	288	6
TAP	68	336	2
TAP	69	0	5
TAP	69	48	3
STR	69	96	4
SCR	69	96	4	96	192	3
TAP	70	48	1
TAP	70	96	4
TAP	70	144	3
HLD	70	192	6	96
TAP	70	288	7
TAP	70	336	7
TAP	71	48	6
TAP	71	96	3
TAP	71	144	4
HLD	71	192	1	96
TAP	71	288	0
TAP	71	336	0
TAP	72	48	1
TAP	72	96	5
TAP	72	144	3
HLD	72	192	7	96
TAP	72	288	0
TAP	72	336	0
TAP	73	48	5
TAP	73	96	4
TAP	73	96	6
TAP	73	192	2
TAP	73	240	1
TAP	73	240	3
TAP	73	336	0
TAP	73	336	7
TAP	74	48	1
TAP	74	96	4
TAP	74	144	3
HLD	74	192	6	96
TAP	74	288	7
TAP	74	336	6
TAP	75	0	3
TAP	75	48	4
HLD	75	96	1	96
TAP	75	192	0
TAP	75	288	6
TAP	75	288	7
STR	76	0	0
SSL	76	0	0	96	120	4
TAP	76	240	5
TAP	76	288	3
TAP	76	336	4
TAP	77	0	2
TAP	77	48	7
BRK	77	96	0
BRK	77	96	6
TAP	78	0	1
STR	78	48	1
SI_	78	48	1	96	48	4
TAP	78	144	5
STR	78	192	5
SI_	78	192	5	96	48	0
TAP	79	0	1
TAP	79	0	7
TAP	79	96	2
TAP	79	144	3
TAP	79	192	4
TAP	79	192	5
TAP	79	288	0
TAP	79	288	7
TAP	80	0	6
STR	80	48	6
SI_	80	48	6	96	48	3
TAP	80	144	2
STR	80	192	2
SI_	80	192	2	96	48	7
TAP	81	0	0
TAP	81	0	6
TAP	81	96	1
TAP	81	96	7
TAP	81	144	6
TAP	81	192	5
TAP	81	240	4
TAP	81	288	3
TAP	81	336	2
TAP	82	0	1
TAP	82	0	5
TAP	82	48	1
TAP	82	48	5
TAP	82	144	2
TAP	82	144	6
STR	82	192	2
SI_	82	192	2	96	48	7
STR	82	192	6
SI_	82	192	6	96	48	3
TAP	83	0	0
TAP	83	0	4
TAP	83	96	5
TAP	83	144	4
TAP	83	192	2
TAP	83	192	3
TAP	83	288	0
TAP	83	288	7
TAP	84	0	2
TAP	84	0	6
TAP	84	48	2
TAP	84	48	6
TAP	84	144	1
TAP	84	144	5
STR	84	192	1
SI_	84	192	1	96	48	4
STR	84	192	5
SI_	84	192	5	96	48	0
TAP	85	0	3
TAP	85	0	7
TAP	85	96	0
TAP	85	96	4
TAP	85	144	1
TAP	85	144	5
STR	85	192	2
SI_	85	192	2	96	48	5
STR	85	192	6
SI_	85	192	6	96	48	1

T_REC_TAP	363
T_REC_BRK	7
T_REC_XTP	0
T_REC_HLD	44
T_REC_XHO	0
T_REC_STR	49
T_REC_BST	0
T_REC_XST	0
T_REC_TTP	0
T_REC_THO	0
T_REC_SLD	49
T_REC_ALL	512
T_NUM_TAP	412
T_NUM_BRK	7
T_NUM_HLD	44
T_NUM_SLD	49
T_NUM_ALL	512
T_JUDGE_TAP	419
T_JUDGE_HLD	91
T_JUDGE_SLD	49
T_JUDGE_ALL	559
TTM_EACHPAIRS	134
TTM_SCR_TAP	206000
TTM_SCR_BRK	18200
TTM_SCR_HLD	44000
TTM_SCR_SLD	73500
TTM_SCR_ALL	341700
TTM_SCR_S	330800
TTM_SCR_SS	341000
TTM_RAT_ACV	10020

