VERSION	0.00.00	1.03.00
FES_MODE	0
BPM_DEF	175.000	175.000	175.000	175.000
MET_DEF	4	4
RESOLUTION	384
CLK_DEF	384
COMPATIBLE_CODE	MA2

BPM	0	0	175.000
MET	0	0	4	4

HLD	10	0	2	144
HLD	10	144	4	144
TAP	10	288	3
TAP	11	192	6
TAP	11	192	7
TAP	11	288	6
TAP	11	288	7
HLD	12	0	5	144
HLD	12	144	3	144
TAP	12	288	4
TAP	13	192	2
TAP	13	192	3
TAP	13	288	2
TAP	13	288	3
HLD	14	0	1	144
HLD	14	144	7	144
TAP	14	288	0
TAP	15	192	4
TAP	15	192	5
TAP	15	288	4
TAP	15	288	5
HLD	16	0	6	144
HLD	16	144	0	144
TAP	16	288	7
TAP	17	192	0
TAP	17	192	1
TAP	17	288	0
TAP	17	288	1
HLD	18	0	7	144
HLD	18	144	1	144
HLD	18	288	6	144
HLD	19	48	0	144
BRK	19	192	7
TAP	20	0	2
TAP	20	96	1
TAP	20	96	3
TAP	20	192	0
TAP	20	192	6
TAP	21	0	5
TAP	21	96	4
TAP	21	96	6
TAP	21	192	1
TAP	21	192	7
TAP	22	0	2
TAP	22	96	2
TAP	22	96	3
TAP	22	192	5
TAP	22	288	4
TAP	22	288	5
TAP	23	0	3
TAP	23	96	3
TAP	23	96	4
TAP	23	192	1
TAP	23	192	6
TAP	24	0	0
TAP	24	0	1
TAP	24	96	2
TAP	24	96	3
TAP	24	192	4
TAP	24	192	5
TAP	24	288	6
TAP	24	288	7
TAP	25	0	0
TAP	25	0	1
TAP	25	96	6
TAP	25	96	7
TAP	25	192	4
TAP	25	192	5
TAP	25	288	2
TAP	25	288	3
TAP	26	0	1
TAP	26	48	1
TAP	26	96	7
TAP	26	144	7
TAP	26	192	0
TAP	26	240	0
STR	26	288	6
SUL	26	288	6	96	192	1
BRK	27	288	0
BRK	27	288	7
HLD	28	0	1	192
TAP	28	192	0
TAP	29	0	2
TAP	29	0	3
TAP	29	96	2
TAP	29	96	3
TAP	29	192	1
TAP	29	192	4
HLD	30	0	6	192
TAP	30	192	7
TAP	31	0	4
TAP	31	0	5
TAP	31	96	4
TAP	31	96	5
TAP	31	192	3
TAP	31	192	6
HLD	32	0	1	192
TAP	32	192	3
TAP	33	0	6
TAP	33	0	7
TAP	33	96	6
TAP	33	96	7
TAP	33	192	0
TAP	33	192	5
HLD	34	0	6	192
TAP	34	192	4
TAP	35	0	0
TAP	35	0	1
TAP	35	96	0
TAP	35	96	1
TAP	35	192	6
TAP	35	192	7
TAP	35	288	6
TAP	35	288	7
TAP	36	0	5
TAP	36	96	4
TAP	36	192	5
TAP	36	288	3
TAP	36	288	6
TAP	37	0	2
TAP	37	96	3
TAP	37	192	2
TAP	37	288	1
TAP	37	288	4
TAP	38	0	0
TAP	38	96	7
TAP	38	192	0
TAP	38	288	1
TAP	38	288	6
TAP	39	0	2
TAP	39	0	5
STR	39	96	3
SCL	39	96	3	96	96	1
STR	39	96	4
SCR	39	96	4	96	96	6
TAP	40	0	2
TAP	40	96	3
TAP	40	192	2
TAP	40	288	1
TAP	40	288	4
TAP	41	0	5
TAP	41	96	4
TAP	41	192	5
TAP	41	288	3
TAP	41	288	6
TAP	42	0	7
TAP	42	96	0
TAP	42	192	7
TAP	42	288	1
TAP	42	288	6
TAP	43	0	2
TAP	43	0	5
STR	43	96	0
SCR	43	96	0	96	96	3
STR	43	96	7
SCL	43	96	7	96	96	4
BRK	44	0	1
BRK	44	0	6
STR	48	0	0
SCL	48	0	0	96	144	5
STR	49	0	7
SCR	49	0	7	96	144	2
STR	50	0	1
SI_	50	0	1	96	48	4
STR	50	192	6
SI_	50	192	6	96	48	3
TAP	51	0	1
TAP	51	96	0
TAP	51	96	2
TAP	51	192	6
TAP	51	288	5
TAP	51	288	7
STR	52	0	4
SCR	52	0	4	96	384	3
TAP	53	192	3
TAP	53	192	4
BRK	53	288	1
BRK	53	288	6
TAP	54	0	2
TAP	54	96	2
TAP	54	96	3
TAP	54	192	5
TAP	54	288	4
TAP	54	288	5
TAP	55	0	3
TAP	55	96	4
TAP	55	192	2
TAP	55	192	5
TAP	56	0	1
TAP	56	96	0
TAP	56	96	1
TAP	56	192	6
TAP	56	288	6
TAP	56	288	7
TAP	57	0	4
TAP	57	0	5
TAP	57	96	2
TAP	57	96	3
TAP	57	192	0
TAP	57	192	7
TAP	58	0	5
TAP	58	96	4
TAP	58	96	5
TAP	58	192	2
TAP	58	288	2
TAP	58	288	3
TAP	59	0	4
TAP	59	96	3
TAP	59	192	1
TAP	59	192	6
TAP	60	0	6
TAP	60	96	6
TAP	60	96	7
TAP	60	192	1
TAP	60	288	0
TAP	60	288	1
TAP	61	0	3
TAP	61	96	4
TAP	61	192	2
TAP	61	192	5
TAP	61	288	1
TAP	61	288	6
TAP	62	0	0
STR	62	96	1
SCR	62	96	1	96	48	3
STR	62	96	7
SCL	62	96	7	96	48	5
TAP	63	0	7
STR	63	96	0
SCR	63	96	0	96	48	2
STR	63	96	6
SCL	63	96	6	96	48	4
TAP	64	0	0
TAP	64	0	7
STR	64	96	1
SCR	64	96	1	96	48	3
STR	64	96	6
SCL	64	96	6	96	48	4
TAP	65	0	2
TAP	65	0	3
TAP	65	96	4
TAP	65	96	5
TAP	65	192	1
TAP	65	192	6
TAP	66	0	0
TAP	66	0	7
TAP	66	96	1
TAP	66	96	6
TAP	66	192	2
TAP	66	192	5
TAP	66	288	3
TAP	66	336	4
TAP	67	0	3
TAP	67	96	2
TAP	67	96	5
BRK	67	192	0
BRK	67	192	7
TAP	68	0	2
TAP	68	0	3
TAP	68	96	4
TAP	68	96	5
TAP	68	192	6
TAP	68	192	7
TAP	68	288	0
TAP	68	288	1
STR	69	0	2
SUL	69	0	2	96	192	5
TAP	70	0	5
TAP	70	48	4
TAP	70	96	5
TAP	70	192	3
TAP	70	192	6
TAP	70	288	1
TAP	70	288	7
TAP	71	0	2
TAP	71	48	3
TAP	71	96	2
TAP	71	192	1
TAP	71	192	4
TAP	71	288	0
TAP	71	288	6
TAP	72	0	1
TAP	72	48	0
TAP	72	96	1
TAP	72	192	2
TAP	72	192	7
TAP	72	288	3
TAP	72	288	5
TAP	73	0	6
TAP	73	48	7
TAP	73	96	6
TAP	73	192	0
TAP	73	192	5
TAP	74	0	2
TAP	74	48	3
TAP	74	96	2
TAP	74	192	1
TAP	74	192	4
TAP	74	288	5
TAP	74	336	4
TAP	75	0	5
TAP	75	96	3
TAP	75	96	6
TAP	75	192	0
TAP	75	192	7
TAP	76	0	4
TAP	76	0	5
TAP	76	96	2
TAP	76	96	3
TAP	76	192	0
TAP	76	192	1
TAP	76	288	6
TAP	76	288	7
STR	77	0	5
SCR	77	0	5	96	192	2
TAP	78	0	2
TAP	78	96	2
TAP	78	96	3
TAP	78	192	5
TAP	78	288	4
TAP	78	288	5
TAP	79	0	1
TAP	79	0	6
TAP	79	96	0
TAP	79	144	7
TAP	79	192	0
HLD	80	0	1	96
TAP	80	96	0
HLD	80	192	6	96
TAP	80	288	7
HLD	81	0	0	96
TAP	81	96	7
TAP	81	192	0
TAP	81	192	1
TAP	81	288	6
TAP	81	288	7
TAP	82	0	5
TAP	82	96	4
TAP	82	96	5
TAP	82	192	2
TAP	82	288	2
TAP	82	288	3
TAP	83	0	1
TAP	83	0	6
TAP	83	96	7
TAP	83	144	0
TAP	83	192	7
HLD	84	0	6	96
TAP	84	96	7
HLD	84	192	1	96
TAP	84	288	0
TAP	85	0	2
TAP	85	0	4
TAP	85	96	3
TAP	85	96	5
TAP	85	192	2
TAP	85	240	3
TAP	85	288	4
TAP	85	336	5

T_REC_TAP	293
T_REC_BRK	9
T_REC_XTP	0
T_REC_HLD	21
T_REC_XHO	0
T_REC_STR	18
T_REC_BST	0
T_REC_XST	0
T_REC_TTP	0
T_REC_THO	0
T_REC_SLD	18
T_REC_ALL	359
T_NUM_TAP	311
T_NUM_BRK	9
T_NUM_HLD	21
T_NUM_SLD	18
T_NUM_ALL	359
T_JUDGE_TAP	320
T_JUDGE_HLD	62
T_JUDGE_SLD	18
T_JUDGE_ALL	400
TTM_EACHPAIRS	108
TTM_SCR_TAP	155500
TTM_SCR_BRK	23400
TTM_SCR_HLD	21000
TTM_SCR_SLD	27000
TTM_SCR_ALL	226900
TTM_SCR_S	219250
TTM_SCR_SS	226000
TTM_RAT_ACV	10039

