VERSION	0.00.00	1.03.00
FES_MODE	0
BPM_DEF	175.000	175.000	175.000	175.000
MET_DEF	4	4
RESOLUTION	384
CLK_DEF	384
COMPATIBLE_CODE	MA2

BPM	0	0	175.000
MET	0	0	4	4

HLD	10	0	3	288
HLD	12	0	4	288
HLD	14	0	2	288
HLD	14	0	3	288
HLD	16	0	4	288
HLD	16	0	5	288
HLD	18	0	2	576
TAP	20	0	2
TAP	20	192	2
TAP	21	0	2
TAP	22	0	1
TAP	22	192	1
TAP	23	0	1
TAP	24	0	0
TAP	24	192	0
TAP	25	0	0
TAP	26	0	7
TAP	26	192	7
BRK	27	0	0
BRK	27	0	7
TAP	28	0	0
TAP	28	192	0
TAP	29	0	1
TAP	29	192	1
TAP	30	0	2
TAP	30	192	2
TAP	31	0	3
TAP	31	0	4
TAP	31	192	3
TAP	31	192	4
TAP	32	0	5
TAP	32	192	5
TAP	33	0	6
TAP	33	192	6
TAP	34	0	7
TAP	34	192	7
TAP	35	0	0
TAP	35	0	7
TAP	35	192	0
TAP	35	192	7
TAP	36	0	1
TAP	36	96	1
TAP	36	288	1
TAP	37	96	3
TAP	37	288	3
TAP	38	96	5
TAP	38	288	5
TAP	39	96	6
TAP	39	96	7
TAP	39	288	6
TAP	39	288	7
TAP	40	96	6
TAP	40	288	6
TAP	41	96	4
TAP	41	288	4
TAP	42	96	2
TAP	42	288	2
TAP	43	96	0
TAP	43	96	1
TAP	43	288	0
TAP	43	288	1
STR	44	0	1
SI_	44	0	1	96	288	4
STR	46	0	6
SI_	46	0	6	96	288	3
STR	48	0	0
SI_	48	0	0	96	288	4
STR	50	0	7
SI_	50	0	7	96	288	3
HLD	52	0	0	576
HLD	52	0	7	576
TAP	54	0	1
TAP	54	192	1
TAP	55	0	2
TAP	55	192	2
TAP	56	0	3
TAP	56	192	3
TAP	57	0	4
TAP	57	96	4
TAP	57	192	4
TAP	58	0	6
TAP	58	192	6
TAP	59	0	5
TAP	59	192	5
TAP	60	0	4
TAP	60	192	4
TAP	61	0	3
TAP	61	96	3
BRK	61	192	3
TAP	62	0	1
TAP	62	192	2
TAP	63	0	3
TAP	63	192	4
TAP	64	0	5
TAP	64	192	6
TAP	65	0	7
TAP	65	96	7
TAP	65	192	7
TAP	66	0	6
TAP	66	192	5
TAP	67	0	4
TAP	67	192	3
TAP	68	0	2
TAP	68	192	1
TAP	69	0	0
TAP	69	96	0
BRK	69	192	0
TAP	70	0	7
TAP	70	96	7
TAP	70	192	7
TAP	71	0	0
TAP	71	96	0
TAP	71	192	0
TAP	72	0	1
TAP	72	96	1
TAP	72	192	1
TAP	73	0	0
TAP	73	0	7
TAP	73	96	0
TAP	73	96	7
TAP	73	192	0
TAP	73	192	7
TAP	74	0	0
TAP	74	96	0
TAP	74	192	0
TAP	75	0	7
TAP	75	96	7
TAP	75	192	7
TAP	76	0	6
TAP	76	96	6
TAP	76	192	6
TAP	77	0	0
TAP	77	0	7
TAP	77	96	0
TAP	77	96	7
BRK	77	192	0
BRK	77	192	7
STR	78	0	6
SI_	78	0	6	96	288	1
STR	80	0	2
SI_	80	0	2	96	288	5
TAP	82	0	6
TAP	82	192	5
TAP	83	0	4
TAP	83	192	3
TAP	84	0	2
TAP	84	192	1
TAP	85	0	0
TAP	85	96	0
TAP	85	192	7
BRK	85	288	7

T_REC_TAP	123
T_REC_BRK	7
T_REC_XTP	0
T_REC_HLD	9
T_REC_XHO	0
T_REC_STR	6
T_REC_BST	0
T_REC_XST	0
T_REC_TTP	0
T_REC_THO	0
T_REC_SLD	6
T_REC_ALL	151
T_NUM_TAP	129
T_NUM_BRK	7
T_NUM_HLD	9
T_NUM_SLD	6
T_NUM_ALL	151
T_JUDGE_TAP	136
T_JUDGE_HLD	72
T_JUDGE_SLD	6
T_JUDGE_ALL	214
TTM_EACHPAIRS	18
TTM_SCR_TAP	64500
TTM_SCR_BRK	18200
TTM_SCR_HLD	9000
TTM_SCR_SLD	9000
TTM_SCR_ALL	100700
TTM_SCR_S	97000
TTM_SCR_SS	100000
TTM_RAT_ACV	10070

