VERSION	0.00.00	1.03.00
FES_MODE	0
BPM_DEF	175.000	175.000	175.000	175.000
MET_DEF	4	4
RESOLUTION	384
CLK_DEF	384
COMPATIBLE_CODE	MA2

BPM	0	0	175.000
MET	0	0	4	4

HLD	1	0	1	72
HLD	1	72	2	72
STR	1	144	3
SCL	1	144	3	96	96	0
HLD	2	0	6	72
HLD	2	72	5	72
STR	2	144	4
SCR	2	144	4	96	96	7
HLD	3	0	1	72
HLD	3	72	2	72
STR	3	144	3
SCL	3	144	3	96	96	0
HLD	4	0	6	72
HLD	4	72	5	72
STR	4	144	4
SUL	4	144	4	96	96	3
HLD	5	0	1	72
HLD	5	72	2	72
STR	5	144	3
SCL	5	144	3	96	96	7
HLD	6	0	6	72
HLD	6	72	5	72
STR	6	144	4
SCR	6	144	4	96	96	0
HLD	7	0	1	72
HLD	7	72	2	72
STR	7	144	3
SCL	7	144	3	96	96	7
HLD	8	0	6	72
HLD	8	72	5	72
STR	8	144	4
SUL	8	144	4	96	96	2
TAP	9	0	1
TAP	9	0	3
TAP	9	144	5
TAP	9	192	4
TAP	9	192	6
TAP	9	336	2
TAP	10	0	1
TAP	10	0	3
TAP	10	48	1
TAP	10	72	0
TAP	10	144	6
TAP	10	192	5
TAP	10	192	7
TAP	10	336	5
TAP	11	0	4
TAP	11	0	6
TAP	11	144	2
TAP	11	192	1
TAP	11	192	3
TAP	11	336	5
TAP	12	0	4
TAP	12	0	6
TAP	12	48	6
TAP	12	72	7
TAP	12	144	4
TAP	12	192	4
TAP	12	240	2
TAP	12	256	3
TAP	12	272	2
TAP	12	288	4
TAP	12	336	1
TAP	13	0	2
TAP	13	0	7
TAP	13	144	7
TAP	13	192	0
TAP	13	192	6
TAP	13	336	3
TAP	14	0	2
TAP	14	0	4
TAP	14	48	2
TAP	14	72	3
TAP	14	144	5
TAP	14	192	4
TAP	14	192	6
TAP	14	288	2
TAP	14	288	3
TAP	15	0	7
TAP	15	48	6
TAP	15	96	5
TAP	15	144	4
TAP	15	192	3
TAP	15	240	2
TAP	15	288	1
TAP	15	336	0
TAP	16	0	1
TAP	16	0	6
TAP	16	48	5
TAP	16	72	4
TAP	16	120	2
TAP	16	144	3
STR	16	192	3
SI_	16	192	3	96	48	0
STR	16	192	4
SI_	16	192	4	96	48	7
BRK	16	288	3
BRK	16	288	4
HLD	17	0	7	72
HLD	17	72	6	72
TAP	17	144	5
TAP	17	240	3
TAP	17	288	2
TAP	17	336	1
HLD	18	0	0	72
HLD	18	72	1	72
TAP	18	144	2
TAP	18	240	4
TAP	18	288	5
TAP	18	336	6
HLD	19	0	7	72
HLD	19	72	6	72
TAP	19	144	5
TAP	19	240	3
TAP	19	288	2
TAP	19	336	1
HLD	20	0	0	72
HLD	20	72	1	72
TAP	20	144	2
TAP	20	240	5
TAP	20	264	4
TAP	20	288	5
TAP	20	312	6
TAP	20	336	5
HLD	21	0	0	72
HLD	21	72	1	72
TAP	21	144	2
TAP	21	240	4
TAP	21	288	5
TAP	21	336	6
HLD	22	0	7	72
HLD	22	72	6	72
TAP	22	144	5
TAP	22	240	3
TAP	22	288	2
TAP	22	336	1
HLD	23	0	0	72
HLD	23	72	1	72
TAP	23	144	2
TAP	23	240	4
TAP	23	288	5
TAP	23	336	6
TAP	24	0	0
TAP	24	0	7
TAP	24	72	4
TAP	24	72	6
TAP	24	144	0
TAP	24	144	1
TAP	24	216	2
TAP	24	216	4
BRK	24	288	6
BRK	24	288	7
TAP	25	0	2
TAP	25	48	3
TAP	25	96	1
TAP	25	96	4
TAP	25	192	5
TAP	25	240	4
TAP	25	288	3
TAP	25	288	6
TAP	26	0	1
TAP	26	48	1
HLD	26	72	0	72
TAP	26	144	2
TAP	26	192	7
TAP	26	240	6
TAP	26	288	0
TAP	26	288	5
TAP	27	0	5
TAP	27	48	4
TAP	27	96	3
TAP	27	96	6
TAP	27	192	2
TAP	27	240	3
TAP	27	288	1
TAP	27	288	4
TAP	28	0	6
TAP	28	48	6
HLD	28	72	7	72
TAP	28	144	5
TAP	28	192	0
TAP	28	240	0
TAP	28	256	1
TAP	28	272	2
TAP	28	288	3
TAP	28	336	5
TAP	29	0	6
TAP	29	48	7
TAP	29	96	0
TAP	29	96	5
TAP	29	192	1
TAP	29	240	0
TAP	29	288	2
TAP	29	288	7
TAP	30	0	5
TAP	30	48	5
HLD	30	72	4	72
TAP	30	144	6
TAP	30	192	3
TAP	30	240	2
TAP	30	288	1
TAP	30	288	4
TAP	31	0	1
TAP	31	48	0
TAP	31	96	2
TAP	31	96	7
TAP	31	192	6
TAP	31	240	7
TAP	31	288	0
TAP	31	288	5
TAP	32	0	2
TAP	32	48	2
HLD	32	72	3	72
TAP	32	144	1
TAP	32	192	7
TAP	32	240	7
TAP	32	256	6
TAP	32	272	5
TAP	32	288	4
TAP	32	336	2
STR	33	0	0
SCR	33	0	0	96	48	3
STR	33	144	5
SCR	33	144	5	96	48	0
STR	33	288	1
SCR	33	288	1	96	48	4
STR	34	0	7
SCL	34	0	7	96	48	4
STR	34	144	2
SCL	34	144	2	96	48	7
STR	34	288	6
SCL	34	288	6	96	48	3
STR	35	0	0
SCR	35	0	0	96	48	3
STR	35	144	5
SCR	35	144	5	96	48	0
STR	35	288	1
SCR	35	288	1	96	48	4
STR	36	0	7
SCL	36	0	7	96	48	4
STR	36	144	2
SCL	36	144	2	96	48	7
STR	36	288	6
SCL	36	288	6	96	48	3
STR	37	0	0
SCR	37	0	0	96	48	3
STR	37	144	4
SUR	37	144	4	96	48	0
STR	37	288	1
SCR	37	288	1	96	48	4
STR	38	0	7
SCL	38	0	7	96	48	4
STR	38	144	3
SUL	38	144	3	96	48	7
STR	38	288	6
SCL	38	288	6	96	48	3
STR	39	0	0
SCR	39	0	0	96	48	3
STR	39	144	4
SUR	39	144	4	96	48	0
STR	39	288	1
SCR	39	288	1	96	96	4
STR	40	0	4
SCR	40	0	4	96	96	7
STR	40	96	7
SCR	40	96	7	96	96	2
STR	40	192	2
SCR	40	192	2	96	96	5
TAP	40	288	5
STR	41	0	7
SCL	41	0	7	96	192	0
TAP	42	0	0
TAP	42	48	1
TAP	42	96	2
TAP	42	144	3
TAP	42	192	4
TAP	42	240	5
TAP	42	288	6
TAP	42	336	7
TAP	43	0	0
TAP	43	24	1
TAP	43	48	2
TAP	43	72	3
TAP	43	96	4
TAP	43	120	5
TAP	43	144	6
TAP	43	168	7
TAP	43	192	0
TAP	43	204	1
TAP	43	216	2
TAP	43	228	3
TAP	43	240	4
TAP	43	252	5
TAP	43	264	6
TAP	43	276	7
TAP	43	288	0
TAP	43	300	1
TAP	43	312	2
TAP	43	324	3
TAP	43	336	4
TAP	43	348	5
TAP	43	360	6
TAP	43	372	7
BRK	44	0	0
STR	44	0	4
SI_	44	0	4	96	48	0
STR	44	96	3
SI_	44	96	3	96	48	7
TAP	44	192	4
BRK	44	288	1
BRK	44	288	6
STR	45	0	6
SI_	45	0	6	96	48	3
TAP	45	48	7
TAP	45	72	0
TAP	45	96	6
STR	45	192	1
SI_	45	192	1	96	48	4
TAP	45	240	0
TAP	45	264	7
TAP	45	288	1
STR	46	0	6
SI_	46	0	6	96	48	3
TAP	46	48	7
TAP	46	72	0
TAP	46	96	6
TAP	46	192	1
TAP	46	240	6
TAP	46	256	5
TAP	46	272	4
TAP	46	288	3
TAP	46	336	1
TAP	46	336	2
TAP	47	48	0
TAP	47	48	6
TAP	47	144	2
TAP	47	144	3
TAP	47	192	1
TAP	47	192	4
TAP	47	240	2
TAP	47	264	3
TAP	47	288	2
TAP	47	336	5
TAP	48	0	6
STR	48	0	7
SUL	48	0	7	96	96	6
STR	48	96	6
SCL	48	96	6	96	96	1
TAP	48	96	7
BRK	48	288	7
STR	49	0	1
SI_	49	0	1	96	48	4
TAP	49	48	0
TAP	49	72	7
TAP	49	96	1
STR	49	192	6
SI_	49	192	6	96	48	3
TAP	49	240	7
TAP	49	264	0
TAP	49	288	6
STR	50	0	1
SI_	50	0	1	96	48	4
TAP	50	48	0
TAP	50	72	7
TAP	50	96	1
TAP	50	192	6
TAP	50	240	1
TAP	50	256	2
TAP	50	272	3
TAP	50	288	4
TAP	50	336	5
TAP	50	336	6
TAP	51	48	1
TAP	51	48	7
TAP	51	144	4
TAP	51	144	5
TAP	51	192	3
TAP	51	192	6
TAP	51	240	5
TAP	51	264	4
TAP	51	288	5
TAP	51	336	2
STR	52	0	0
SUR	52	0	0	96	96	1
TAP	52	0	1
TAP	52	96	0
STR	52	96	1
SCR	52	96	1	96	96	6
BRK	52	288	0
STR	53	0	6
SI_	53	0	6	96	48	3
TAP	53	48	7
TAP	53	72	0
TAP	53	96	6
TAP	53	144	2
STR	53	192	1
SI_	53	192	1	96	48	4
TAP	53	240	0
TAP	53	264	7
TAP	53	288	1
TAP	53	336	5
STR	54	0	6
SI_	54	0	6	96	48	3
TAP	54	48	7
TAP	54	72	0
TAP	54	96	6
TAP	54	144	2
TAP	54	192	1
TAP	54	240	1
TAP	54	256	2
TAP	54	272	3
TAP	54	288	4
TAP	54	336	5
TAP	54	336	6
TAP	55	48	0
TAP	55	48	6
TAP	55	144	2
TAP	55	144	3
TAP	55	192	1
TAP	55	192	4
TAP	55	240	2
TAP	55	264	3
TAP	55	288	2
TAP	55	336	5
TAP	56	0	6
STR	56	0	7
SUL	56	0	7	96	96	6
STR	56	96	6
SCL	56	96	6	96	96	1
TAP	56	96	7
BRK	56	288	7
STR	57	0	1
SI_	57	0	1	96	48	4
TAP	57	48	0
TAP	57	72	7
TAP	57	96	1
TAP	57	144	5
STR	57	192	6
SI_	57	192	6	96	48	3
TAP	57	240	7
TAP	57	264	0
TAP	57	288	6
TAP	57	336	2
STR	58	0	1
SI_	58	0	1	96	48	4
TAP	58	48	0
TAP	58	72	7
TAP	58	96	1
TAP	58	144	5
TAP	58	192	6
TAP	58	240	6
TAP	58	256	5
TAP	58	272	4
TAP	58	288	3
TAP	58	336	1
TAP	58	336	2
TAP	59	48	1
TAP	59	48	7
TAP	59	144	4
TAP	59	144	5
TAP	59	192	3
TAP	59	192	6
TAP	59	240	5
TAP	59	264	4
TAP	59	288	5
TAP	59	336	2
STR	60	0	0
SUR	60	0	0	96	96	1
TAP	60	0	1
TAP	60	96	0
STR	60	96	1
SCR	60	96	1	96	96	6
STR	60	288	7
SCL	60	288	7	96	288	0
TAP	62	0	3
TAP	62	0	4
STR	63	0	0
SCR	63	0	0	96	96	3
TAP	63	48	4
TAP	63	96	4
STR	63	192	0
SCL	63	192	0	96	96	5
TAP	63	240	4
TAP	63	288	4
STR	64	0	0
SCR	64	0	0	96	96	3
TAP	64	48	4
TAP	64	96	4
TAP	64	192	5
TAP	64	240	2
TAP	64	256	3
TAP	64	272	2
TAP	64	288	4
TAP	64	336	0
HLD	65	48	1	96
TAP	65	144	3
TAP	65	192	3
TAP	65	264	3
TAP	65	264	4
TAP	65	336	4
TAP	65	336	6
HLD	66	0	5	96
HLD	66	96	4	96
TAP	66	192	3
TAP	66	288	2
TAP	66	288	5
STR	67	0	7
SCL	67	0	7	96	96	4
TAP	67	48	3
TAP	67	96	3
STR	67	192	7
SCR	67	192	7	96	96	2
TAP	67	240	3
TAP	67	288	3
STR	68	0	7
SCL	68	0	7	96	96	4
TAP	68	48	3
TAP	68	96	3
TAP	68	192	2
TAP	68	240	5
TAP	68	256	4
TAP	68	272	5
TAP	68	288	3
TAP	68	336	6
HLD	69	48	6	96
TAP	69	144	4
TAP	69	192	4
TAP	69	264	3
TAP	69	264	4
TAP	69	336	2
TAP	69	336	5
STR	70	0	3
SI_	70	0	3	96	48	7
STR	70	96	4
SI_	70	96	4	96	48	0
TAP	70	192	3
BRK	70	288	1
BRK	70	288	6
STR	71	0	2
SI_	71	0	2	96	48	7
TAP	71	48	3
TAP	71	72	4
TAP	71	96	2
TAP	71	144	6
STR	71	192	5
SI_	71	192	5	96	48	0
TAP	71	240	4
TAP	71	264	3
TAP	71	288	5
TAP	71	336	1
STR	72	0	2
SI_	72	0	2	96	48	7
TAP	72	48	3
TAP	72	72	4
TAP	72	96	2
TAP	72	144	6
TAP	72	192	5
TAP	72	240	5
TAP	72	256	4
TAP	72	272	3
TAP	72	288	2
TAP	72	336	1
TAP	72	336	7
TAP	73	48	2
TAP	73	48	3
TAP	73	144	4
TAP	73	144	5
TAP	73	192	3
TAP	73	192	6
TAP	73	240	5
TAP	73	264	4
TAP	73	288	5
TAP	73	336	1
TAP	74	0	2
STR	74	0	3
SUL	74	0	3	96	96	2
STR	74	96	2
SCL	74	96	2	96	96	5
TAP	74	96	3
BRK	74	288	3
STR	75	0	5
SI_	75	0	5	96	48	0
TAP	75	48	4
TAP	75	72	3
TAP	75	96	5
TAP	75	144	1
STR	75	192	2
SI_	75	192	2	96	48	7
TAP	75	240	3
TAP	75	264	4
TAP	75	288	2
TAP	75	336	6
STR	76	0	5
SI_	76	0	5	96	48	0
TAP	76	48	4
TAP	76	72	3
TAP	76	96	5
TAP	76	144	1
TAP	76	192	2
TAP	76	240	2
TAP	76	256	3
TAP	76	272	4
TAP	76	288	5
TAP	76	336	0
TAP	76	336	6
TAP	77	48	4
TAP	77	48	5
TAP	77	144	2
TAP	77	144	3
TAP	77	192	1
TAP	77	192	4
TAP	77	240	2
TAP	77	264	3
TAP	77	288	2
TAP	77	336	6
STR	78	0	4
SUR	78	0	4	96	96	5
TAP	78	0	5
TAP	78	96	4
STR	78	96	5
SCR	78	96	5	96	96	2
STR	78	288	4
SCL	78	288	4	96	288	5
TAP	80	0	0
TAP	80	72	1
HLD	80	144	2	384
TAP	81	0	7
TAP	81	72	6
TAP	81	144	5
TAP	81	240	3
TAP	81	264	4
TAP	81	288	3
TAP	81	336	0
TAP	81	336	7
BRK	82	0	1
BRK	82	0	6

T_REC_TAP	428
T_REC_BRK	15
T_REC_XTP	0
T_REC_HLD	39
T_REC_XHO	0
T_REC_STR	77
T_REC_BST	0
T_REC_XST	0
T_REC_TTP	0
T_REC_THO	0
T_REC_SLD	77
T_REC_ALL	636
T_NUM_TAP	505
T_NUM_BRK	15
T_NUM_HLD	39
T_NUM_SLD	77
T_NUM_ALL	636
T_JUDGE_TAP	520
T_JUDGE_HLD	84
T_JUDGE_SLD	77
T_JUDGE_ALL	681
TTM_EACHPAIRS	77
TTM_SCR_TAP	252500
TTM_SCR_BRK	39000
TTM_SCR_HLD	39000
TTM_SCR_SLD	115500
TTM_SCR_ALL	446000
TTM_SCR_S	431200
TTM_SCR_SS	444500
TTM_RAT_ACV	10033

