VERSION	0.00.00	1.03.00
FES_MODE	0
BPM_DEF	175.000	175.000	175.000	175.000
MET_DEF	4	4
RESOLUTION	384
CLK_DEF	384
COMPATIBLE_CODE	MA2

BPM	0	0	175.000
MET	0	0	4	4

TAP	1	0	2
TAP	1	72	3
TAP	1	144	2
TAP	2	0	5
TAP	2	72	4
TAP	2	144	5
TAP	3	0	2
TAP	3	72	3
TAP	3	144	1
TAP	4	0	5
TAP	4	72	4
TAP	4	144	6
TAP	4	240	0
TAP	4	288	7
HLD	5	0	0	288
TAP	5	96	7
TAP	5	192	6
TAP	5	288	5
HLD	6	0	4	288
TAP	6	96	0
TAP	6	192	1
TAP	6	288	2
HLD	7	0	3	96
TAP	7	96	2
HLD	7	192	4	96
TAP	7	288	5
HLD	8	0	3	96
TAP	8	96	1
HLD	8	192	4	96
TAP	8	288	6
HLD	9	0	0	96
HLD	9	0	2	96
HLD	9	192	0	96
HLD	9	192	2	96
TAP	10	0	0
TAP	10	0	7
STR	10	96	1
SI_	10	96	1	96	48	3
STR	10	96	6
SI_	10	96	6	96	48	4
HLD	11	0	5	96
HLD	11	0	7	96
HLD	11	192	5	96
HLD	11	192	7	96
TAP	12	0	1
TAP	12	0	6
STR	12	96	2
SI_	12	96	2	96	48	0
STR	12	96	5
SI_	12	96	5	96	48	7
HLD	13	0	1	96
HLD	13	0	3	96
HLD	13	192	4	96
HLD	13	192	6	96
TAP	14	0	2
TAP	14	0	5
STR	14	96	3
SI_	14	96	3	96	48	1
STR	14	96	4
SI_	14	96	4	96	48	6
HLD	15	0	6	96
HLD	15	0	7	96
HLD	15	192	0	96
HLD	15	192	1	96
TAP	16	0	0
TAP	16	72	7
TAP	16	144	1
TAP	16	144	6
TAP	16	240	2
TAP	16	240	5
TAP	16	288	3
TAP	16	288	4
TAP	17	0	0
TAP	17	0	1
TAP	17	72	0
TAP	17	72	1
TAP	17	144	0
TAP	17	144	1
TAP	17	240	1
TAP	17	288	0
TAP	17	336	1
TAP	18	0	6
TAP	18	0	7
TAP	18	72	6
TAP	18	72	7
TAP	18	144	6
TAP	18	144	7
TAP	18	240	6
TAP	18	288	7
TAP	18	336	6
TAP	19	0	2
TAP	19	0	3
TAP	19	72	2
TAP	19	72	3
TAP	19	144	2
TAP	19	144	3
TAP	19	240	2
TAP	19	288	3
TAP	19	336	2
TAP	20	0	4
TAP	20	0	5
TAP	20	72	4
TAP	20	72	5
TAP	20	144	4
TAP	20	144	5
TAP	20	240	2
TAP	20	240	5
TAP	20	288	0
TAP	20	288	7
HLD	21	0	0	144
TAP	21	72	1
TAP	21	144	2
TAP	21	240	2
TAP	21	288	3
TAP	21	336	2
HLD	22	0	7	144
TAP	22	72	6
TAP	22	144	5
TAP	22	240	5
TAP	22	288	4
TAP	22	336	5
HLD	23	0	1	72
TAP	23	72	6
TAP	23	144	0
TAP	23	144	7
TAP	23	240	2
TAP	23	240	6
TAP	23	288	2
TAP	23	288	6
TAP	24	0	0
TAP	24	0	4
TAP	24	72	0
TAP	24	72	4
TAP	24	144	1
TAP	24	144	5
TAP	24	216	2
TAP	24	216	6
BRK	24	288	3
BRK	24	288	7
TAP	25	0	2
TAP	25	48	2
TAP	25	192	5
TAP	25	240	5
TAP	26	0	3
TAP	26	72	4
TAP	26	144	3
TAP	26	192	2
TAP	26	192	5
TAP	27	0	1
TAP	27	48	1
TAP	27	192	6
TAP	27	240	6
TAP	28	0	0
TAP	28	72	7
TAP	28	144	0
STR	28	192	7
SI_	28	192	7	96	48	3
TAP	28	240	0
TAP	29	0	1
TAP	29	48	0
TAP	29	144	1
TAP	29	192	0
TAP	29	240	1
TAP	29	336	0
TAP	30	0	0
TAP	30	72	0
TAP	30	72	1
TAP	30	144	2
TAP	30	144	7
TAP	30	192	0
TAP	30	192	1
TAP	30	336	6
TAP	31	0	7
TAP	31	48	6
TAP	31	144	6
TAP	31	192	7
TAP	31	240	6
TAP	31	336	6
TAP	32	0	6
TAP	32	72	6
TAP	32	72	7
TAP	32	144	6
TAP	32	144	7
TAP	32	192	5
TAP	32	240	0
TAP	32	288	6
TAP	32	336	7
STR	33	0	1
SCL	33	0	1	96	192	6
STR	34	0	5
SUR	34	0	5	96	192	2
STR	35	0	2
SCR	35	0	2	96	192	5
STR	36	0	6
SUL	36	0	6	96	192	1
HLD	37	0	2	144
HLD	37	144	3	144
TAP	37	288	4
HLD	38	0	5	144
HLD	38	144	4	144
TAP	38	288	3
HLD	39	0	1	144
HLD	39	144	0	144
TAP	39	288	7
HLD	40	0	6	96
HLD	40	96	7	96
HLD	40	192	0	96
STR	40	288	1
SCL	40	288	1	96	672	2
STR	43	0	6
SUL	43	0	6	96	192	3
BRK	44	0	0
BRK	44	0	7
TAP	44	96	0
TAP	44	96	7
TAP	44	192	0
TAP	44	192	7
STR	44	288	0
SI_	44	288	0	96	48	2
STR	44	288	7
SI_	44	288	7	96	48	5
STR	45	96	0
SI_	45	96	0	96	48	4
STR	45	96	7
SI_	45	96	7	96	48	3
STR	45	288	0
SCL	45	288	0	96	48	5
STR	45	288	7
SCR	45	288	7	96	48	2
TAP	46	96	4
TAP	46	144	3
TAP	46	192	4
TAP	46	264	0
TAP	46	288	7
TAP	46	336	1
TAP	46	336	6
TAP	47	48	2
TAP	47	96	3
TAP	47	144	4
HLD	47	192	5	72
HLD	47	264	4	72
TAP	47	336	3
TAP	48	0	0
TAP	48	0	7
TAP	48	96	1
TAP	48	96	6
TAP	48	192	2
TAP	48	192	5
STR	48	288	0
SI_	48	288	0	96	48	2
STR	48	288	7
SI_	48	288	7	96	48	5
STR	49	96	0
SI_	49	96	0	96	48	4
STR	49	96	7
SI_	49	96	7	96	48	3
STR	49	288	0
SCL	49	288	0	96	48	5
STR	49	288	7
SCR	49	288	7	96	48	2
TAP	50	96	0
TAP	50	96	1
TAP	50	144	2
TAP	50	144	7
TAP	50	192	0
TAP	50	192	1
TAP	50	264	7
TAP	50	288	0
TAP	50	336	1
TAP	50	336	6
TAP	51	48	1
TAP	51	96	0
TAP	51	144	7
HLD	51	192	6	72
HLD	51	264	7	72
TAP	51	336	0
HLD	52	0	2	96
HLD	52	96	4	96
TAP	52	192	6
STR	52	288	0
SI_	52	288	0	96	48	2
STR	52	288	7
SI_	52	288	7	96	48	5
STR	53	96	0
SI_	53	96	0	96	48	4
STR	53	96	7
SI_	53	96	7	96	48	3
STR	53	288	0
SCL	53	288	0	96	48	5
STR	53	288	7
SCR	53	288	7	96	48	2
TAP	54	96	3
TAP	54	144	4
TAP	54	192	3
TAP	54	264	7
TAP	54	288	0
TAP	54	336	1
TAP	54	336	6
TAP	55	48	5
TAP	55	96	4
TAP	55	144	3
HLD	55	192	2	72
HLD	55	264	3	72
TAP	55	336	4
TAP	56	0	0
TAP	56	0	7
TAP	56	96	0
TAP	56	96	7
TAP	56	144	1
TAP	56	144	6
TAP	56	192	2
TAP	56	192	5
STR	56	288	0
SI_	56	288	0	96	48	2
STR	56	288	7
SI_	56	288	7	96	48	5
STR	57	96	0
SI_	57	96	0	96	48	4
STR	57	96	7
SI_	57	96	7	96	48	3
STR	57	288	0
SCL	57	288	0	96	48	5
STR	57	288	7
SCR	57	288	7	96	48	2
TAP	58	96	6
TAP	58	96	7
TAP	58	144	0
TAP	58	144	5
TAP	58	192	6
TAP	58	192	7
TAP	58	264	0
TAP	58	288	7
TAP	58	336	1
TAP	58	336	6
TAP	59	48	6
TAP	59	96	7
TAP	59	144	0
HLD	59	192	1	72
HLD	59	264	0	72
TAP	59	336	7
HLD	60	0	6	96
HLD	60	96	4	96
HLD	60	192	2	96
TAP	60	288	0
TAP	61	0	3
HLD	61	0	4	144
TAP	61	72	3
HLD	61	144	3	144
TAP	61	240	6
STR	61	288	6
SCL	61	288	6	96	48	3
TAP	61	336	6
BRK	62	96	0
BRK	62	192	0
STR	62	288	0
SI_	62	288	0	96	48	4
STR	63	96	6
SI_	63	96	6	96	48	3
STR	63	288	1
SI_	63	288	1	96	48	4
TAP	64	96	7
TAP	64	144	6
TAP	64	192	5
TAP	64	264	3
TAP	64	288	4
TAP	64	336	2
TAP	64	336	5
TAP	65	48	1
TAP	65	48	6
TAP	65	144	0
TAP	65	144	7
TAP	65	192	0
TAP	65	192	7
TAP	65	264	1
TAP	65	264	6
TAP	65	336	2
TAP	65	336	5
TAP	66	0	3
TAP	66	0	4
STR	66	96	1
SI_	66	96	1	96	48	4
STR	66	96	6
SI_	66	96	6	96	48	3
STR	66	288	7
SI_	66	288	7	96	48	3
STR	67	96	1
SI_	67	96	1	96	48	4
STR	67	288	6
SI_	67	288	6	96	48	3
TAP	68	96	0
TAP	68	144	1
TAP	68	192	2
TAP	68	264	4
TAP	68	288	3
TAP	68	336	2
TAP	68	336	5
TAP	69	48	2
TAP	69	48	5
TAP	69	144	3
TAP	69	144	4
TAP	69	192	3
TAP	69	192	4
TAP	69	264	2
TAP	69	264	5
TAP	69	336	1
TAP	69	336	6
STR	70	0	0
SI_	70	0	0	96	48	4
STR	70	96	6
SI_	70	96	6	96	48	2
STR	70	288	0
SI_	70	288	0	96	48	6
STR	70	288	1
SI_	70	288	1	96	48	3
STR	71	96	0
SI_	71	96	0	96	48	4
STR	71	96	1
SI_	71	96	1	96	48	5
STR	71	288	0
SCR	71	288	0	96	48	3
STR	71	288	1
SCL	71	288	1	96	48	6
TAP	72	96	0
TAP	72	96	7
TAP	72	144	1
TAP	72	144	6
TAP	72	192	2
TAP	72	192	5
TAP	72	264	3
TAP	72	288	4
TAP	72	336	1
TAP	72	336	6
TAP	73	48	2
TAP	73	96	3
TAP	73	144	4
HLD	73	192	5	72
HLD	73	264	6	72
TAP	73	336	7
HLD	74	0	0	192
TAP	74	96	7
TAP	74	144	6
TAP	74	192	5
STR	74	288	6
SI_	74	288	6	96	48	4
STR	74	288	7
SI_	74	288	7	96	48	1
STR	75	96	6
SI_	75	96	6	96	48	2
STR	75	96	7
SI_	75	96	7	96	48	3
STR	75	288	6
SCR	75	288	6	96	48	1
STR	75	288	7
SCL	75	288	7	96	48	4
TAP	76	96	2
TAP	76	96	5
TAP	76	144	1
TAP	76	144	6
TAP	76	192	0
TAP	76	192	7
TAP	76	264	0
TAP	76	288	7
TAP	76	336	1
TAP	76	336	6
TAP	77	48	5
TAP	77	96	4
TAP	77	144	3
HLD	77	192	2	72
HLD	77	264	1	72
TAP	77	336	0
STR	78	0	7
SI_	78	0	7	96	48	3
STR	78	96	0
SI_	78	96	0	96	48	2
STR	78	192	6
SI_	78	192	6	96	48	4
STR	78	288	1
SI_	78	288	1	96	48	5
TAP	79	0	7
TAP	79	72	7
TAP	79	144	7
TAP	79	240	0
TAP	79	240	6
TAP	79	288	1
TAP	79	288	5
TAP	79	336	2
TAP	79	336	4
TAP	80	0	3
TAP	80	72	3
TAP	80	144	3
TAP	80	240	2
TAP	80	240	4
TAP	80	288	1
TAP	80	288	5
TAP	80	336	0
TAP	80	336	6
TAP	81	0	7
TAP	81	72	7
TAP	81	144	7
TAP	81	240	1
TAP	81	240	6
TAP	81	288	3
TAP	81	336	4
BRK	82	0	0
BRK	82	0	7

T_REC_TAP	315
T_REC_BRK	8
T_REC_XTP	0
T_REC_HLD	54
T_REC_XHO	0
T_REC_STR	64
T_REC_BST	0
T_REC_XST	0
T_REC_TTP	0
T_REC_THO	0
T_REC_SLD	64
T_REC_ALL	505
T_NUM_TAP	379
T_NUM_BRK	8
T_NUM_HLD	54
T_NUM_SLD	64
T_NUM_ALL	505
T_JUDGE_TAP	387
T_JUDGE_HLD	128
T_JUDGE_SLD	64
T_JUDGE_ALL	579
TTM_EACHPAIRS	114
TTM_SCR_TAP	189500
TTM_SCR_BRK	20800
TTM_SCR_HLD	54000
TTM_SCR_SLD	96000
TTM_SCR_ALL	360300
TTM_SCR_S	348750
TTM_SCR_SS	359500
TTM_RAT_ACV	10022

