VERSION	0.00.00	1.03.00
FES_MODE	0
BPM_DEF	175.000	175.000	175.000	175.000
MET_DEF	4	4
RESOLUTION	384
CLK_DEF	384
COMPATIBLE_CODE	MA2

BPM	0	0	175.000
MET	0	0	4	4

TAP	5	0	5
TAP	5	96	4
TAP	5	192	3
TAP	5	192	5
TAP	6	0	2
TAP	6	96	3
TAP	6	192	2
TAP	6	192	4
TAP	7	0	1
TAP	7	96	0
TAP	7	192	1
TAP	7	192	7
TAP	8	0	6
TAP	8	96	7
TAP	8	192	0
TAP	8	192	6
TAP	9	0	3
TAP	9	0	4
TAP	9	192	2
TAP	9	192	3
TAP	10	0	0
TAP	10	0	1
TAP	10	96	7
TAP	10	192	0
TAP	10	192	6
TAP	11	0	1
TAP	11	0	7
TAP	11	192	0
TAP	11	192	6
TAP	12	0	1
TAP	12	0	6
TAP	12	96	1
TAP	12	96	6
TAP	12	192	2
TAP	12	192	5
TAP	12	288	2
TAP	12	288	5
TAP	13	0	3
TAP	13	0	4
TAP	13	192	4
TAP	13	192	5
TAP	14	0	6
TAP	14	0	7
TAP	14	96	0
TAP	14	192	1
TAP	14	192	7
TAP	15	0	0
TAP	15	0	6
TAP	15	192	1
TAP	15	192	7
TAP	16	0	1
TAP	16	0	6
TAP	16	96	3
TAP	16	96	5
TAP	16	192	2
TAP	16	192	4
STR	16	288	3
SI_	16	288	3	96	192	0
STR	16	288	4
SI_	16	288	4	96	192	7
TAP	18	0	1
TAP	18	96	0
TAP	18	192	2
TAP	18	192	7
TAP	19	0	6
TAP	19	96	7
TAP	19	192	0
TAP	19	192	5
TAP	20	0	4
TAP	20	96	3
TAP	20	192	2
TAP	20	288	1
TAP	20	288	6
TAP	21	0	2
TAP	21	96	3
TAP	21	192	1
TAP	21	192	4
TAP	22	0	5
TAP	22	96	4
TAP	22	192	3
TAP	22	192	6
TAP	23	0	7
TAP	23	96	0
TAP	23	192	1
TAP	23	192	6
STR	23	288	0
SI_	23	288	0	96	192	3
STR	23	288	7
SI_	23	288	7	96	192	4
TAP	25	0	3
TAP	25	0	4
TAP	25	96	5
TAP	25	192	4
TAP	25	192	5
TAP	25	288	2
TAP	26	0	2
TAP	26	0	3
TAP	26	96	4
TAP	26	96	5
TAP	26	192	3
TAP	26	192	6
TAP	27	0	0
TAP	27	0	7
TAP	27	96	6
TAP	27	192	0
TAP	27	192	6
TAP	27	288	1
TAP	28	0	1
TAP	28	0	7
TAP	28	96	0
TAP	28	96	7
TAP	28	192	1
TAP	28	192	6
TAP	28	288	2
TAP	28	288	5
TAP	29	0	3
TAP	29	0	4
TAP	29	96	2
TAP	29	192	2
TAP	29	192	3
TAP	29	288	5
TAP	30	0	4
TAP	30	0	5
TAP	30	96	2
TAP	30	96	3
TAP	30	192	1
TAP	30	192	4
TAP	31	0	0
TAP	31	0	7
TAP	31	96	1
TAP	31	192	0
TAP	31	192	1
TAP	31	288	6
TAP	32	0	6
TAP	32	0	7
TAP	32	96	4
TAP	32	96	5
TAP	32	192	2
TAP	32	192	3
STR	32	288	4
SUL	32	288	4	96	384	3
TAP	34	96	0
TAP	34	96	7
TAP	34	192	1
TAP	34	192	6
TAP	34	288	2
TAP	34	288	5
HLD	35	0	4	144
HLD	35	144	3	144
STR	35	288	2
SUL	35	288	2	96	192	5
HLD	37	0	3	144
HLD	37	144	4	144
TAP	37	288	5
HLD	38	0	6	144
HLD	38	144	0	144
TAP	38	288	7
HLD	39	0	1	144
HLD	39	144	7	144
TAP	39	288	0
TAP	40	0	1
TAP	40	0	7
TAP	40	96	2
TAP	40	96	6
TAP	40	192	3
TAP	40	192	5
STR	40	288	4
SCR	40	288	4	96	480	3
TAP	42	192	3
TAP	42	192	4
STR	42	288	2
SCL	42	288	2	96	288	5
BRK	44	0	7
TAP	44	96	0
TAP	44	96	6
TAP	44	192	1
TAP	44	192	7
TAP	44	288	2
TAP	44	288	5
TAP	45	0	0
TAP	45	0	7
TAP	45	96	1
TAP	45	192	0
TAP	45	192	1
TAP	45	288	6
TAP	46	0	6
TAP	46	0	7
STR	46	96	7
SI_	46	96	7	96	96	3
TAP	47	0	2
TAP	47	96	2
TAP	47	96	3
TAP	47	192	5
TAP	47	288	4
TAP	47	288	5
TAP	48	0	3
TAP	48	96	4
TAP	48	192	2
TAP	48	192	5
TAP	49	0	0
TAP	49	0	7
TAP	49	96	5
TAP	49	192	3
TAP	49	192	6
TAP	49	288	2
TAP	50	0	1
TAP	50	0	4
STR	50	96	0
SI_	50	96	0	96	96	4
TAP	51	0	5
TAP	51	96	4
TAP	51	96	5
TAP	51	192	2
TAP	51	288	2
TAP	51	288	3
TAP	52	0	1
TAP	52	96	0
TAP	52	192	7
TAP	52	288	1
TAP	52	288	6
TAP	53	0	2
TAP	53	0	5
TAP	53	96	6
TAP	53	192	6
TAP	53	192	7
TAP	53	288	1
TAP	54	0	0
TAP	54	0	1
STR	54	96	7
SI_	54	96	7	96	96	3
TAP	55	0	2
TAP	55	96	1
TAP	55	96	3
TAP	55	192	5
TAP	55	288	4
TAP	55	288	6
TAP	56	0	3
TAP	56	96	4
TAP	56	192	1
TAP	56	192	6
TAP	57	0	3
TAP	57	0	4
TAP	57	96	1
TAP	57	192	0
TAP	57	192	2
TAP	57	288	6
TAP	58	0	5
TAP	58	0	7
STR	58	96	0
SI_	58	96	0	96	96	4
TAP	59	0	5
TAP	59	96	4
TAP	59	96	6
TAP	59	192	2
TAP	59	288	1
TAP	59	288	3
TAP	60	0	4
TAP	60	96	2
TAP	60	192	6
STR	60	288	0
SCR	60	288	0	96	384	7
TAP	62	96	0
TAP	62	192	1
TAP	62	288	2
TAP	63	0	3
TAP	63	0	4
TAP	63	192	0
TAP	63	192	1
TAP	64	0	6
TAP	64	0	7
TAP	64	96	0
TAP	64	192	1
TAP	64	192	7
TAP	65	0	6
TAP	65	96	5
TAP	65	192	4
TAP	65	288	3
TAP	66	0	2
TAP	66	96	1
TAP	66	192	0
TAP	66	192	7
TAP	67	0	3
TAP	67	0	4
TAP	67	192	6
TAP	67	192	7
TAP	68	0	0
TAP	68	0	1
TAP	68	96	7
TAP	68	192	0
TAP	68	192	6
TAP	69	0	1
TAP	69	96	2
TAP	69	192	3
TAP	69	288	4
TAP	70	0	5
TAP	70	96	6
TAP	70	192	0
TAP	70	192	7
BRK	70	288	1
BRK	70	288	6
TAP	71	0	2
TAP	71	0	5
TAP	71	96	1
TAP	71	96	4
TAP	71	192	2
TAP	71	192	5
TAP	71	288	3
TAP	71	288	6
TAP	72	0	0
TAP	72	0	5
TAP	72	96	2
TAP	72	96	7
TAP	72	192	1
TAP	72	192	6
TAP	73	0	2
TAP	73	96	1
TAP	73	96	3
TAP	73	192	5
TAP	73	288	4
TAP	73	288	6
TAP	74	0	3
TAP	74	0	5
TAP	74	96	2
TAP	74	96	4
TAP	74	192	1
TAP	74	192	7
TAP	75	0	1
TAP	75	0	6
TAP	75	96	0
TAP	75	96	5
TAP	75	192	1
TAP	75	192	6
TAP	75	288	2
TAP	75	288	7
TAP	76	0	1
TAP	76	0	6
TAP	76	96	0
TAP	76	96	7
TAP	76	192	1
TAP	76	192	6
TAP	76	288	2
TAP	76	288	5
TAP	77	0	3
TAP	77	0	4
TAP	77	96	1
TAP	77	192	3
TAP	77	192	4
TAP	77	288	6
TAP	78	0	3
TAP	78	0	4
TAP	78	96	2
TAP	78	96	5
TAP	78	192	1
TAP	78	192	6
STR	78	288	0
SCR	78	288	0	96	192	3
STR	78	288	7
SCL	78	288	7	96	192	4
TAP	80	0	2
TAP	80	96	3
TAP	80	192	4
TAP	80	192	5
TAP	81	0	5
TAP	81	96	4
TAP	81	192	2
TAP	81	192	3
TAP	81	288	4
TAP	81	288	5
TAP	82	0	0
TAP	82	0	6

T_REC_TAP	329
T_REC_BRK	3
T_REC_XTP	0
T_REC_HLD	8
T_REC_XHO	0
T_REC_STR	15
T_REC_BST	0
T_REC_XST	0
T_REC_TTP	0
T_REC_THO	0
T_REC_SLD	15
T_REC_ALL	370
T_NUM_TAP	344
T_NUM_BRK	3
T_NUM_HLD	8
T_NUM_SLD	15
T_NUM_ALL	370
T_JUDGE_TAP	347
T_JUDGE_HLD	24
T_JUDGE_SLD	15
T_JUDGE_ALL	386
TTM_EACHPAIRS	126
TTM_SCR_TAP	172000
TTM_SCR_BRK	7800
TTM_SCR_HLD	8000
TTM_SCR_SLD	22500
TTM_SCR_ALL	210300
TTM_SCR_S	203700
TTM_SCR_SS	210000
TTM_RAT_ACV	10014

