VERSION	0.00.00	1.03.00
FES_MODE	0
BPM_DEF	175.000	175.000	175.000	175.000
MET_DEF	4	4
RESOLUTION	384
CLK_DEF	384
COMPATIBLE_CODE	MA2

BPM	0	0	175.000
MET	0	0	4	4

TAP	5	0	3
TAP	5	192	3
TAP	6	0	2
TAP	6	192	2
TAP	7	0	1
TAP	7	192	1
TAP	8	0	0
BRK	8	192	0
TAP	9	0	7
TAP	9	192	7
TAP	10	0	7
TAP	10	96	7
TAP	10	192	7
TAP	11	0	0
TAP	11	192	0
TAP	12	0	0
TAP	12	96	0
TAP	12	192	0
TAP	13	0	7
TAP	13	192	7
TAP	14	0	6
TAP	14	96	6
TAP	14	192	6
TAP	15	0	0
TAP	15	192	0
TAP	16	0	1
TAP	16	96	1
TAP	16	192	1
TAP	17	0	2
TAP	17	192	2
TAP	18	0	3
TAP	18	192	3
TAP	19	0	4
TAP	19	192	4
TAP	20	0	3
TAP	20	96	3
TAP	20	192	3
TAP	21	0	4
TAP	21	192	4
TAP	22	0	5
TAP	22	192	5
TAP	23	0	6
TAP	23	192	6
BRK	24	0	0
BRK	24	0	7
TAP	25	0	0
TAP	25	0	1
TAP	25	192	0
TAP	25	192	1
TAP	26	0	1
TAP	26	96	1
TAP	26	192	1
TAP	27	0	6
TAP	27	0	7
TAP	27	192	6
TAP	27	192	7
TAP	28	0	6
TAP	28	96	6
TAP	28	192	6
TAP	29	0	0
TAP	29	0	1
TAP	29	192	0
TAP	29	192	1
TAP	30	0	1
TAP	30	96	1
TAP	30	192	1
TAP	31	0	6
TAP	31	0	7
TAP	31	192	6
TAP	31	192	7
TAP	32	0	6
TAP	32	96	6
TAP	32	192	6
STR	33	0	6
SI_	33	0	6	96	288	2
STR	35	0	1
SI_	35	0	1	96	288	5
STR	37	0	7
SI_	37	0	7	96	288	4
STR	39	0	0
SI_	39	0	0	96	288	3
TAP	41	0	4
TAP	41	192	4
TAP	42	0	5
TAP	42	192	5
TAP	43	0	6
TAP	43	192	6
BRK	44	0	0
BRK	44	0	7
TAP	45	0	0
TAP	45	96	0
TAP	45	192	0
TAP	46	0	7
TAP	46	96	7
TAP	46	192	7
TAP	47	0	6
TAP	47	96	6
TAP	47	192	6
TAP	48	0	5
TAP	48	96	5
TAP	48	192	5
TAP	49	0	7
TAP	49	96	7
TAP	49	192	7
TAP	50	0	0
TAP	50	96	0
TAP	50	192	0
TAP	51	0	1
TAP	51	96	1
TAP	51	192	1
TAP	52	0	2
TAP	52	96	2
TAP	52	192	2
TAP	53	0	0
TAP	53	0	1
TAP	53	96	0
TAP	53	96	1
TAP	53	192	0
TAP	53	192	1
TAP	54	0	0
TAP	54	0	7
TAP	54	96	0
TAP	54	96	7
TAP	54	192	0
TAP	54	192	7
TAP	55	0	6
TAP	55	0	7
TAP	55	96	6
TAP	55	96	7
TAP	55	192	6
TAP	55	192	7
TAP	56	0	5
TAP	56	96	5
TAP	56	192	5
TAP	57	0	6
TAP	57	0	7
TAP	57	96	6
TAP	57	96	7
TAP	57	192	6
TAP	57	192	7
TAP	58	0	0
TAP	58	0	7
TAP	58	96	0
TAP	58	96	7
TAP	58	192	0
TAP	58	192	7
TAP	59	0	0
TAP	59	0	1
TAP	59	96	0
TAP	59	96	1
TAP	59	192	0
TAP	59	192	1
TAP	60	0	2
TAP	60	96	2
TAP	60	192	2
HLD	61	0	3	384
HLD	61	0	4	384
TAP	63	0	0
TAP	64	0	1
TAP	65	0	2
TAP	66	0	3
TAP	67	0	4
TAP	67	192	4
TAP	68	0	5
TAP	68	192	5
TAP	69	0	6
TAP	69	192	6
TAP	70	0	7
TAP	70	96	7
BRK	70	192	7
TAP	71	0	0
TAP	71	0	1
TAP	71	96	0
TAP	71	96	1
TAP	71	192	0
TAP	71	192	1
TAP	72	0	2
TAP	72	0	3
TAP	72	96	2
TAP	72	96	3
TAP	72	192	2
TAP	72	192	3
TAP	73	0	4
TAP	73	0	5
TAP	73	96	4
TAP	73	96	5
TAP	73	192	4
TAP	73	192	5
TAP	74	0	6
TAP	74	96	6
TAP	74	192	6
TAP	75	0	6
TAP	75	0	7
TAP	75	96	6
TAP	75	96	7
TAP	75	192	6
TAP	75	192	7
TAP	76	0	4
TAP	76	0	5
TAP	76	96	4
TAP	76	96	5
TAP	76	192	4
TAP	76	192	5
TAP	77	0	2
TAP	77	0	3
TAP	77	96	2
TAP	77	96	3
TAP	77	192	2
TAP	77	192	3
TAP	78	0	1
TAP	78	96	1
TAP	78	192	1
HLD	79	0	0	384
HLD	79	0	7	384
TAP	81	0	0
TAP	81	192	7
TAP	82	0	1
TAP	82	0	6

T_REC_TAP	200
T_REC_BRK	6
T_REC_XTP	0
T_REC_HLD	4
T_REC_XHO	0
T_REC_STR	4
T_REC_BST	0
T_REC_XST	0
T_REC_TTP	0
T_REC_THO	0
T_REC_SLD	4
T_REC_ALL	218
T_NUM_TAP	204
T_NUM_BRK	6
T_NUM_HLD	4
T_NUM_SLD	4
T_NUM_ALL	218
T_JUDGE_TAP	210
T_JUDGE_HLD	32
T_JUDGE_SLD	4
T_JUDGE_ALL	246
TTM_EACHPAIRS	49
TTM_SCR_TAP	102000
TTM_SCR_BRK	15600
TTM_SCR_HLD	4000
TTM_SCR_SLD	6000
TTM_SCR_ALL	127600
TTM_SCR_S	123200
TTM_SCR_SS	127000
TTM_RAT_ACV	10047

