VERSION	0.00.00	1.03.00
FES_MODE	0
BPM_DEF	200.000	200.000	200.000	200.000
MET_DEF	4	4
RESOLUTION	384
CLK_DEF	384
COMPATIBLE_CODE	MA2

BPM	0	0	200.000
MET	0	0	4	4
MET	12	0	4	3
MET	17	96	4	5
MET	18	192	4	4
MET	30	192	4	3
MET	41	0	4	4
MET	56	0	4	3
MET	78	192	4	4

TAP	1	336	2
TAP	2	0	2
TAP	2	48	3
TAP	2	96	4
TAP	2	144	2
HLD	2	144	5	144
TAP	2	240	4
TAP	2	288	4
HLD	2	336	3	96
TAP	2	336	5
TAP	3	48	4
TAP	3	96	2
HLD	3	96	3	192
STR	3	288	1
SI_	3	288	1	96	48	3
STR	3	336	3
SI_	3	336	3	96	48	5
TAP	4	96	7
TAP	4	144	7
TAP	4	192	7
TAP	4	216	0
TAP	4	216	6
TAP	4	240	1
HLD	4	240	5	96
TAP	4	336	4
HLD	5	0	3	96
TAP	5	0	4
TAP	5	96	4
TAP	5	144	2
HLD	5	144	3	96
TAP	5	240	2
TAP	5	288	2
TAP	5	336	3
TAP	6	0	4
HLD	6	48	3	144
TAP	6	48	5
TAP	6	192	6
TAP	6	216	7
TAP	6	240	0
TAP	6	264	1
TAP	6	288	2
TAP	6	312	3
TAP	6	336	4
TAP	6	360	5
TAP	7	0	3
HLD	7	0	6	96
TAP	7	96	2
TAP	7	144	3
HLD	7	144	4	96
TAP	7	240	3
TAP	7	288	5
HLD	7	336	4	96
TAP	7	336	6
TAP	8	48	5
TAP	8	96	3
HLD	8	96	4	96
TAP	8	192	0
STR	8	288	6
SLL	8	288	6	96	96	2
TAP	8	336	4
TAP	9	96	0
TAP	9	144	0
TAP	9	192	0
TAP	9	216	1
TAP	9	216	7
HLD	9	240	2	96
TAP	9	240	6
TAP	9	336	3
HLD	10	0	3	96
TAP	10	0	4
TAP	10	96	4
TAP	10	144	2
HLD	10	144	3	96
TAP	10	240	2
TAP	10	288	2
TAP	10	336	1
STR	10	336	3
SI_	10	336	3	96	48	0
TAP	11	0	4
TAP	11	48	3
HLD	11	48	5	144
TAP	11	192	1
TAP	11	216	0
TAP	11	240	7
TAP	11	264	6
TAP	11	288	5
TAP	11	312	4
TAP	11	336	3
TAP	11	360	2
BRK	12	0	1
HLD	12	0	5	288
TAP	12	144	4
TAP	12	192	4
HLD	12	288	2	288
TAP	13	48	3
TAP	13	96	3
TAP	13	192	4
STR	13	336	3
SLL	13	336	3	96	144	7
TAP	13	336	5
TAP	14	0	3
STR	14	0	5
SI_	14	0	5	96	96	3
TAP	14	288	2
TAP	14	292	3
HLD	15	0	1	288
TAP	15	0	4
TAP	15	144	0
TAP	15	192	0
HLD	15	288	6	288
TAP	16	48	7
TAP	16	96	7
STR	16	192	1
SLR	16	192	1	96	192	0
TAP	16	288	3
STR	17	0	0
SI_	17	0	0	96	96	4
STR	17	96	4
SLL	17	96	4	96	144	7
STR	17	192	6
SI_	17	192	6	96	48	2
TAP	18	0	0
TAP	18	0	3
TAP	18	24	1
TAP	18	48	2
TAP	18	72	3
TAP	18	96	4
TAP	18	96	7
TAP	18	120	6
TAP	18	144	5
TAP	18	168	4
TAP	18	192	1
TAP	18	192	3
TAP	18	288	4
TAP	18	336	5
TAP	19	0	3
TAP	19	0	6
TAP	19	48	5
TAP	19	96	4
TAP	19	144	5
TAP	19	192	3
TAP	19	192	6
STR	19	240	5
SCR	19	240	5	96	144	2
TAP	19	288	4
TAP	19	336	3
TAP	19	336	5
TAP	20	192	3
TAP	20	240	2
TAP	20	288	3
TAP	20	336	1
TAP	20	336	4
TAP	21	0	3
STR	21	48	2
SCL	21	48	2	96	144	5
TAP	21	96	3
TAP	21	144	2
TAP	21	144	4
TAP	22	0	2
TAP	22	0	5
TAP	22	24	4
TAP	22	48	3
TAP	22	72	4
TAP	22	96	3
TAP	22	120	4
TAP	22	144	3
TAP	22	168	4
TAP	22	192	3
HLD	22	192	4	96
TAP	22	288	2
STR	22	336	1
SI_	22	336	1	96	48	4
TAP	22	336	4
STR	23	48	3
SI_	23	48	3	96	48	6
STR	23	144	0
SI_	23	144	0	96	48	4
STR	23	240	3
SI_	23	240	3	96	48	7
TAP	23	336	1
STR	24	48	3
SCL	24	48	3	96	192	4
TAP	24	72	7
TAP	24	96	3
TAP	25	48	2
HLD	25	48	4	96
TAP	25	96	2
TAP	25	144	2
HLD	25	192	4	96
TAP	25	192	5
TAP	25	240	5
TAP	25	288	5
TAP	25	336	2
HLD	25	336	4	96
TAP	26	0	2
TAP	26	48	2
BRK	26	96	2
BRK	26	96	5
TAP	26	192	1
HLD	26	192	3	96
TAP	26	240	1
TAP	26	288	1
HLD	26	336	3	96
TAP	26	336	4
TAP	27	0	4
TAP	27	48	4
TAP	27	96	1
HLD	27	96	3	96
TAP	27	144	1
TAP	27	192	2
HLD	27	240	4	96
TAP	27	240	6
TAP	27	288	6
TAP	27	336	5
TAP	28	0	2
HLD	28	0	4	96
TAP	28	48	2
TAP	28	96	3
HLD	28	144	4	96
TAP	28	144	5
TAP	28	192	6
TAP	28	240	6
TAP	28	288	2
HLD	28	288	3	96
TAP	28	336	1
TAP	29	0	1
HLD	29	48	3	96
TAP	29	48	5
TAP	29	96	5
TAP	29	144	4
TAP	29	192	2
HLD	29	192	3	96
TAP	29	240	1
TAP	29	288	1
TAP	29	336	0
TAP	29	336	3
TAP	30	0	0
TAP	30	0	4
TAP	30	24	1
TAP	30	48	2
TAP	30	72	3
TAP	30	96	0
STR	30	96	4
SI_	30	96	4	96	48	0
TAP	30	120	7
TAP	30	144	6
TAP	30	168	5
HLD	30	192	1	288
TAP	30	192	4
STR	31	96	7
SLL	31	96	7	96	192	1
TAP	31	192	0
STR	31	288	1
SCL	31	288	1	96	480	3
TAP	32	0	4
TAP	32	144	4
HLD	32	288	0	192
STR	33	192	0
SLL	33	192	0	96	192	1
TAP	33	192	4
TAP	33	288	6
STR	34	0	1
SI_	34	0	1	96	96	5
STR	34	96	5
SLR	34	96	5	96	192	3
TAP	34	192	7
TAP	34	288	3
TAP	35	0	4
HLD	35	48	4	192
TAP	35	96	3
TAP	35	144	2
TAP	35	192	1
HLD	35	240	2	288
TAP	35	288	4
TAP	35	336	4
TAP	36	0	5
TAP	36	48	6
TAP	36	96	5
TAP	36	144	4
TAP	36	192	1
HLD	36	192	4	288
STR	37	96	1
SLR	37	96	1	96	192	7
TAP	37	192	3
STR	37	288	7
SCR	37	288	7	96	384	5
TAP	38	0	4
TAP	38	144	4
HLD	38	288	7	192
STR	39	96	4
SCL	39	96	4	96	96	2
STR	39	192	2
SCL	39	192	2	96	96	7
STR	39	288	7
SCL	39	288	7	96	96	3
STR	40	0	3
SCL	40	0	3	96	174	3
TAP	40	96	7
TAP	40	288	2
TAP	40	300	1
TAP	40	312	0
TAP	40	324	7
TAP	40	336	6
TAP	40	348	5
TAP	40	360	4
TAP	40	372	3
HLD	41	0	2	96
TAP	41	0	6
TAP	41	96	3
TAP	41	144	1
STR	41	144	3
SI_	41	144	3	96	48	6
STR	41	240	1
SI_	41	240	1	96	48	4
STR	41	336	3
SI_	41	336	3	96	48	7
STR	42	48	0
SI_	42	48	0	96	48	4
TAP	42	144	5
TAP	42	240	7
TAP	42	264	3
STR	42	288	7
SCL	42	288	7	96	96	0
TAP	43	240	3
HLD	43	240	4	96
TAP	43	288	2
TAP	43	336	2
HLD	44	0	4	96
TAP	44	0	6
TAP	44	48	6
TAP	44	96	5
TAP	44	144	2
HLD	44	144	3	96
TAP	44	192	1
TAP	44	240	1
HLD	44	288	3	96
TAP	44	288	5
TAP	44	336	5
TAP	45	0	4
TAP	45	48	1
TAP	45	48	3
TAP	45	96	1
STR	45	96	3
SCR	45	96	3	96	84	7
TAP	45	144	0
TAP	45	144	3
TAP	45	192	0
TAP	45	216	1
TAP	45	240	2
TAP	45	264	3
TAP	45	288	0
TAP	45	312	1
TAP	45	336	2
TAP	45	360	3
TAP	46	0	0
TAP	46	0	4
TAP	46	24	1
TAP	46	24	5
BRK	46	48	2
BRK	46	48	6
HLD	46	144	4	96
TAP	46	144	7
TAP	46	192	6
TAP	46	240	5
TAP	46	288	3
HLD	46	288	4	96
TAP	46	336	2
TAP	47	0	1
HLD	47	48	4	96
TAP	47	48	5
TAP	47	96	6
TAP	47	144	7
TAP	47	192	1
HLD	47	192	4	96
TAP	47	240	2
TAP	47	288	3
TAP	47	336	4
TAP	47	336	5
STR	48	0	4
SCL	48	0	4	96	84	0
TAP	48	0	6
TAP	48	48	4
TAP	48	48	7
TAP	48	96	7
TAP	48	120	6
TAP	48	144	5
TAP	48	168	4
TAP	48	192	7
TAP	48	216	6
TAP	48	240	5
TAP	48	264	4
TAP	48	288	3
TAP	48	288	7
TAP	48	312	2
TAP	48	312	6
TAP	48	336	1
TAP	48	336	5
TAP	48	360	0
TAP	48	360	4
TAP	49	0	3
TAP	49	0	7
TAP	49	24	6
TAP	49	48	5
TAP	49	72	4
TAP	49	96	3
TAP	49	120	2
HLD	49	144	1	96
HLD	49	144	5	96
HLD	49	336	3	96
HLD	49	336	7	96
TAP	50	96	2
TAP	50	96	4
STR	50	144	2
SI_	50	144	2	96	48	4
STR	50	144	4
SI_	50	144	4	96	48	6
TAP	50	240	2
STR	50	240	4
SI_	50	240	4	96	48	0
TAP	50	336	7
HLD	51	48	7	192
TAP	51	96	0
TAP	51	144	1
TAP	51	192	2
TAP	51	240	3
TAP	51	336	7
HLD	52	0	1	96
HLD	52	0	5	96
TAP	52	144	0
HLD	52	192	2	96
HLD	52	192	6	96
TAP	52	336	2
TAP	52	336	6
TAP	53	0	0
TAP	53	24	1
TAP	53	48	2
TAP	53	72	3
TAP	53	96	1
TAP	53	96	4
TAP	53	120	2
TAP	53	144	3
TAP	53	168	4
TAP	53	192	2
TAP	53	192	5
TAP	53	216	3
TAP	53	240	4
TAP	53	264	5
TAP	53	288	3
TAP	53	288	6
TAP	53	312	4
TAP	53	336	5
TAP	53	360	6
HLD	54	0	3	672
HLD	54	0	7	672
TAP	56	0	1
TAP	56	0	5
TAP	56	48	1
HLD	56	48	5	192
HLD	56	144	3	96
TAP	56	288	3
TAP	56	288	5
HLD	57	48	4	48
TAP	57	192	2
TAP	57	192	6
HLD	57	240	2	192
TAP	57	240	6
HLD	57	336	4	96
TAP	58	96	2
TAP	58	96	4
HLD	58	288	3	0
HLD	58	292	4	0
HLD	59	0	2	96
HLD	59	0	3	48
HLD	59	144	2	48
HLD	59	144	3	96
HLD	59	288	3	96
HLD	59	288	4	48
HLD	60	48	3	48
HLD	60	48	4	96
HLD	60	192	4	48
HLD	60	192	5	96
HLD	60	336	4	96
HLD	60	336	5	48
HLD	61	96	3	48
HLD	61	96	4	96
HLD	61	288	5	0
HLD	61	292	3	0
TAP	62	0	2
TAP	62	0	6
HLD	62	48	2	192
TAP	62	48	6
HLD	62	144	4	96
HLD	62	288	2	96
HLD	62	288	4	192
TAP	63	192	1
TAP	63	192	5
TAP	63	240	1
HLD	63	240	5	192
HLD	63	336	3	96
HLD	64	96	3	96
HLD	64	96	5	192
HLD	65	0	4	48
HLD	65	0	6	96
HLD	65	144	3	96
HLD	65	144	5	48
HLD	65	288	2	48
HLD	65	288	4	96
HLD	66	48	1	96
HLD	66	48	3	48
HLD	66	192	4	96
HLD	66	192	6	48
HLD	66	336	1	96
HLD	66	336	3	48
HLD	67	96	2	48
HLD	67	96	7	96
BRK	67	288	0
BRK	67	288	6
TAP	68	0	1
TAP	68	0	5
STR	68	48	1
SI_	68	48	1	96	48	3
STR	68	48	5
SI_	68	48	5	96	48	3
TAP	68	144	1
TAP	68	144	5
STR	68	240	1
SI_	68	240	1	96	48	5
TAP	68	240	5
TAP	68	288	1
STR	68	288	5
SI_	68	288	5	96	48	1
TAP	69	48	7
TAP	69	96	3
TAP	69	96	7
TAP	69	192	1
TAP	69	192	5
STR	69	240	1
SLR	69	240	1	96	96	5
STR	69	240	5
SLL	69	240	5	96	96	1
STR	69	336	1
SLL	69	336	1	96	96	5
STR	69	336	5
SLR	69	336	5	96	96	1
TAP	70	288	1
TAP	70	288	5
TAP	71	0	3
TAP	71	0	6
TAP	71	48	3
STR	71	48	6
SCL	71	48	6	96	48	3
TAP	71	96	2
TAP	71	144	2
TAP	71	192	1
TAP	71	240	1
TAP	71	288	1
TAP	71	288	4
STR	71	336	1
SCR	71	336	1	96	48	4
TAP	71	336	4
TAP	72	0	5
TAP	72	48	6
TAP	72	96	6
TAP	72	144	7
TAP	72	192	4
TAP	72	192	7
TAP	72	240	4
STR	72	240	7
SCL	72	240	7	96	48	4
TAP	72	288	2
TAP	72	336	1
TAP	73	0	1
TAP	73	48	1
TAP	73	96	0
TAP	73	96	4
TAP	73	120	1
TAP	73	144	2
TAP	73	168	3
TAP	73	192	0
TAP	73	192	4
TAP	73	216	7
TAP	73	240	6
TAP	73	264	5
TAP	73	288	0
TAP	73	288	4
TAP	74	0	2
TAP	74	0	6
STR	74	48	2
SI_	74	48	2	96	48	4
STR	74	48	6
SI_	74	48	6	96	48	4
TAP	74	144	2
TAP	74	144	6
TAP	74	240	2
STR	74	240	6
SI_	74	240	6	96	48	2
STR	74	288	2
SI_	74	288	2	96	48	6
TAP	74	288	6
TAP	75	48	0
TAP	75	96	0
TAP	75	96	4
TAP	75	192	2
TAP	75	192	6
STR	75	240	2
SLR	75	240	2	96	96	6
STR	75	240	6
SLL	75	240	6	96	96	2
STR	75	336	2
SLL	75	336	2	96	96	6
STR	75	336	6
SLR	75	336	6	96	96	2
TAP	76	288	2
TAP	76	288	6
HLD	77	0	3	96
TAP	77	0	6
TAP	77	48	5
TAP	77	96	4
TAP	77	144	0
HLD	77	144	3	96
TAP	77	192	1
TAP	77	240	2
TAP	77	288	3
TAP	77	288	4
TAP	77	312	5
TAP	77	336	6
TAP	77	360	7
TAP	78	0	0
TAP	78	0	4
TAP	78	24	3
TAP	78	48	2
TAP	78	72	1
BRK	78	96	0
BRK	78	96	4
TAP	78	192	0
TAP	78	192	7
TAP	78	240	0
STR	78	240	7
SUR	78	240	7	96	96	3
STR	78	336	3
SCR	78	336	3	96	96	7
STR	79	48	7
SUL	79	48	7	96	96	3
STR	79	144	3
SCL	79	144	3	96	240	3
TAP	79	240	7
TAP	79	336	3
TAP	80	48	0
STR	80	96	0
SCL	80	96	0	96	96	5
SCR	80	96	0	96	96	3
TAP	80	336	4
TAP	80	360	4
STR	81	0	3
SCL	81	0	3	96	144	5
STR	81	336	7
SI_	81	336	7	96	48	3
STR	82	0	3
SI_	82	0	3	96	48	7
STR	82	48	7
SCL	82	48	7	96	120	1
TAP	82	96	2
TAP	82	144	2
STR	82	336	0
SI_	82	336	0	96	48	4
STR	83	0	4
SI_	83	0	4	96	48	0
TAP	83	48	0
TAP	83	96	5
TAP	83	144	5
TAP	83	192	1
TAP	83	208	2
TAP	83	224	3
TAP	83	240	4
TAP	83	256	5
TAP	83	272	6
TAP	83	288	7
TAP	83	304	0
TAP	83	320	1
TAP	83	336	2
STR	83	352	3
SI_	83	352	3	96	56	7
STR	83	352	7
SI_	83	352	7	96	56	3
TAP	84	192	1
TAP	84	192	5
STR	84	240	1
SLR	84	240	1	96	96	5
STR	84	240	5
SLL	84	240	5	96	96	1
STR	84	336	1
SCL	84	336	1	96	144	3
STR	84	336	5
SCR	84	336	5	96	144	3
TAP	85	288	0
TAP	85	304	1
TAP	85	320	2
TAP	85	336	6
TAP	85	352	5
TAP	85	368	4
TAP	86	0	1
TAP	86	16	2
TAP	86	32	3
TAP	86	48	7
TAP	86	64	6
TAP	86	80	5
TAP	86	96	0
TAP	86	112	1
TAP	86	128	2
TAP	86	144	6
TAP	86	160	5
TAP	86	176	4
TAP	86	192	1
HLD	86	192	3	96
TAP	86	288	2
HLD	86	336	3	144
TAP	86	336	4
TAP	87	48	5
TAP	87	96	4
TAP	87	144	1
HLD	87	144	3	96
TAP	87	240	2
HLD	87	288	3	96
TAP	87	288	4
HLD	88	0	5	96
STR	88	96	0
SI_	88	96	0	96	48	2
SI_	88	96	0	96	48	6
STR	88	144	2
SLR	88	144	2	96	96	0
STR	88	144	6
SLL	88	144	6	96	96	0
TAP	89	0	1
TAP	89	0	7
TAP	89	24	2
TAP	89	24	6
HLD	89	48	3	96
HLD	89	48	5	96
HLD	89	192	2	96
HLD	89	192	4	96
TAP	89	336	1
TAP	89	336	5
TAP	90	0	1
TAP	90	0	5
TAP	90	48	1
TAP	90	48	5
TAP	90	96	3
STR	90	96	7
SI_	90	96	7	96	48	5
SLR	90	96	7	96	88	3
TAP	90	144	1
STR	90	144	5
SLL	90	144	5	96	96	7
TAP	91	0	2
TAP	91	0	6
TAP	91	24	1
TAP	91	24	5
TAP	91	48	0
TAP	91	48	4
TAP	91	72	3
TAP	91	72	7
TAP	91	96	0
TAP	91	96	4
TAP	91	120	1
TAP	91	120	5
HLD	91	144	2	48
HLD	91	144	6	48
TAP	91	240	2
TAP	91	240	6
TAP	91	336	0
STR	91	336	4
SI_	91	336	4	96	48	2
SLR	91	336	4	96	88	0
STR	92	0	2
SLL	92	0	2	96	96	4
TAP	92	0	6
HLD	92	240	3	48
HLD	92	240	7	48
TAP	92	336	3
TAP	92	336	7
STR	93	48	3
SI_	93	48	3	96	48	1
SI_	93	48	3	96	48	5
TAP	93	48	7
STR	93	96	1
SLL	93	96	1	96	96	3
STR	93	96	5
SLR	93	96	5	96	96	3
TAP	93	336	2
TAP	93	336	4
TAP	93	360	1
TAP	93	360	5
HLD	94	0	0	96
HLD	94	0	6	96
TAP	94	144	1
TAP	94	144	7
TAP	94	192	1
STR	94	192	7
SI_	94	192	7	96	48	3
TAP	94	288	2
TAP	94	336	2
TAP	95	0	1
TAP	95	24	3
TAP	95	48	1
TAP	95	72	6
TAP	95	96	4
TAP	95	120	6
TAP	95	144	1
TAP	95	168	3
TAP	95	192	1
TAP	95	216	6
TAP	95	240	4
TAP	95	264	5
TAP	95	288	1
TAP	95	312	3
TAP	95	336	2
TAP	95	360	6
TAP	96	0	0
TAP	96	24	7
TAP	96	48	1
TAP	96	72	6
TAP	96	96	0
TAP	96	120	7
TAP	96	144	1
TAP	96	168	6
BRK	96	192	0
TAP	96	216	1
TAP	96	240	2
TAP	96	240	6
TAP	96	264	5
TAP	96	288	1
TAP	96	288	4
TAP	96	312	2
TAP	96	336	3
TAP	96	336	7
TAP	96	360	6
TAP	97	0	0
TAP	97	0	5
TAP	97	24	1
TAP	97	48	2
TAP	97	48	6
TAP	97	72	5
TAP	97	96	1
TAP	97	96	4
TAP	97	120	2
TAP	97	144	3
TAP	97	144	7
TAP	97	168	6
TAP	97	192	0
TAP	97	192	5
TAP	97	216	1
TAP	97	240	2
TAP	97	240	6
TAP	97	264	5
TAP	97	288	1
TAP	97	288	4
TAP	97	312	2
TAP	97	336	3
TAP	97	336	7
TAP	97	360	6
TAP	98	0	0
TAP	98	0	5
TAP	98	24	1
TAP	98	48	2
TAP	98	48	6
TAP	98	72	5
TAP	98	96	1
TAP	98	96	4
TAP	98	120	2
TAP	98	144	3
TAP	98	144	7
TAP	98	168	6
TAP	98	192	0
TAP	98	192	5
TAP	98	216	1
TAP	98	240	2
TAP	98	240	6
TAP	98	264	5
TAP	98	288	0
TAP	98	288	4
TAP	98	312	1
TAP	98	336	2
TAP	98	336	7
TAP	98	360	6
TAP	99	0	5
TAP	99	24	3
TAP	99	24	4
TAP	99	48	2
TAP	99	72	1
STR	99	96	0
SSL	99	96	0	96	96	4
SV_	99	96	0	96	96	3
TAP	99	96	7
TAP	99	120	0
TAP	99	120	7
TAP	99	144	0
TAP	99	144	7
TAP	99	168	0
TAP	99	168	7

T_REC_TAP	589
T_REC_BRK	10
T_REC_XTP	0
T_REC_HLD	120
T_REC_XHO	0
T_REC_STR	87
T_REC_BST	0
T_REC_XST	0
T_REC_TTP	0
T_REC_THO	0
T_REC_SLD	93
T_REC_ALL	899
T_NUM_TAP	676
T_NUM_BRK	10
T_NUM_HLD	120
T_NUM_SLD	93
T_NUM_ALL	899
T_JUDGE_TAP	686
T_JUDGE_HLD	295
T_JUDGE_SLD	93
T_JUDGE_ALL	1074
TTM_EACHPAIRS	212
TTM_SCR_TAP	338000
TTM_SCR_BRK	26000
TTM_SCR_HLD	120000
TTM_SCR_SLD	139500
TTM_SCR_ALL	623500
TTM_SCR_S	603850
TTM_SCR_SS	622500
TTM_RAT_ACV	10016

