VERSION	0.00.00	1.03.00
FES_MODE	0
BPM_DEF	200.000	200.000	200.000	200.000
MET_DEF	4	4
RESOLUTION	384
CLK_DEF	384
COMPATIBLE_CODE	MA2

BPM	0	0	200.000
MET	0	0	4	4

TAP	1	336	3
TAP	2	0	4
TAP	2	48	5
TAP	2	96	5
TAP	2	144	1
TAP	2	144	6
TAP	2	192	0
TAP	2	216	7
TAP	2	240	0
TAP	2	288	6
TAP	2	336	5
TAP	2	336	7
TAP	3	48	1
TAP	3	96	0
TAP	3	96	2
TAP	3	192	2
TAP	3	288	1
TAP	3	336	0
TAP	4	0	7
TAP	4	48	6
STR	4	96	7
SCL	4	96	7	96	48	5
TAP	4	144	0
TAP	4	192	0
TAP	4	216	1
TAP	4	240	2
TAP	4	336	0
TAP	5	0	1
TAP	5	0	6
TAP	5	96	2
TAP	5	144	6
TAP	5	192	3
TAP	5	240	7
TAP	5	288	1
TAP	5	336	0
TAP	6	0	7
HLD	6	48	0	144
TAP	6	192	4
TAP	6	216	3
TAP	6	240	2
TAP	6	264	1
TAP	6	288	0
TAP	6	312	7
TAP	6	336	6
TAP	6	360	5
TAP	7	0	1
TAP	7	0	4
TAP	7	48	5
TAP	7	96	1
TAP	7	96	5
TAP	7	144	6
TAP	7	192	0
TAP	7	216	7
TAP	7	240	0
TAP	7	288	6
TAP	7	336	5
TAP	7	336	7
TAP	8	48	1
TAP	8	96	0
TAP	8	96	2
TAP	8	192	2
TAP	8	192	4
TAP	8	288	1
TAP	8	288	4
TAP	8	336	0
TAP	9	0	2
TAP	9	0	7
TAP	9	48	6
TAP	9	96	2
STR	9	96	7
SCL	9	96	7	96	48	5
TAP	9	144	0
TAP	9	192	0
TAP	9	192	7
TAP	9	216	1
TAP	9	240	2
TAP	9	336	0
TAP	9	336	7
TAP	10	0	1
TAP	10	0	6
TAP	10	96	3
TAP	10	96	4
TAP	10	144	0
TAP	10	192	3
TAP	10	192	4
TAP	10	240	7
TAP	10	288	6
STR	10	336	0
SCR	10	336	0	96	48	4
TAP	11	0	7
HLD	11	48	6	144
TAP	11	192	3
TAP	11	216	2
TAP	11	240	1
TAP	11	264	0
TAP	11	288	7
TAP	11	312	6
TAP	11	336	5
TAP	11	360	4
HLD	12	0	3	864
BRK	12	0	6
TAP	12	288	7
TAP	13	192	0
TAP	14	96	1
STR	15	0	0
SUR	15	0	0	96	192	1
TAP	15	0	4
TAP	15	96	5
TAP	15	144	6
TAP	15	192	7
TAP	15	288	4
TAP	16	192	4
TAP	16	288	1
TAP	17	0	5
TAP	17	96	3
TAP	17	192	6
TAP	17	288	1
TAP	17	312	6
TAP	17	336	1
TAP	17	360	6
TAP	18	0	0
TAP	18	24	1
TAP	18	48	2
TAP	18	72	3
TAP	18	96	4
TAP	18	120	5
TAP	18	144	6
TAP	18	168	7
STR	18	192	0
SI_	18	192	0	96	48	4
TAP	18	240	6
TAP	18	288	0
STR	19	0	1
SI_	19	0	1	96	48	5
TAP	19	48	7
TAP	19	96	1
STR	19	192	2
SI_	19	192	2	96	48	6
TAP	19	240	4
TAP	19	288	2
STR	20	0	3
SI_	20	0	3	96	48	7
TAP	20	48	5
TAP	20	96	3
STR	20	192	6
SI_	20	192	6	96	48	2
TAP	20	240	0
TAP	20	288	6
STR	21	0	5
SI_	21	0	5	96	48	1
TAP	21	48	3
TAP	21	96	5
STR	21	192	4
SI_	21	192	4	96	48	0
TAP	21	240	2
TAP	21	288	4
TAP	21	336	2
TAP	22	0	6
TAP	22	48	0
TAP	22	72	7
TAP	22	96	0
TAP	22	120	7
TAP	22	144	0
TAP	22	168	7
TAP	22	192	0
TAP	22	240	6
TAP	22	288	1
HLD	22	336	7	96
HLD	23	48	1	96
HLD	23	144	6	96
HLD	23	240	2	96
HLD	23	336	5	96
STR	24	48	3
SCL	24	48	3	96	192	4
TAP	24	96	3
TAP	25	48	1
TAP	25	48	7
STR	25	96	0
SCR	25	96	0	96	48	2
TAP	25	144	7
TAP	25	192	0
STR	25	240	6
SCL	25	240	6	96	48	4
TAP	25	288	0
TAP	25	336	6
STR	26	0	7
SCR	26	0	7	96	48	1
TAP	26	48	6
TAP	26	96	7
STR	26	144	6
SI_	26	144	6	96	48	2
TAP	26	192	7
TAP	26	240	6
STR	26	288	7
SCR	26	288	7	96	48	1
TAP	26	336	6
TAP	27	0	7
TAP	27	48	6
STR	27	96	0
SCR	27	96	0	96	48	2
TAP	27	144	7
TAP	27	192	0
STR	27	240	7
SCL	27	240	7	96	48	5
TAP	27	288	0
TAP	27	336	7
STR	28	0	1
SCL	28	0	1	96	48	7
TAP	28	48	3
TAP	28	96	1
STR	28	144	3
SCR	28	144	3	96	48	5
TAP	28	192	1
TAP	28	240	3
STR	28	288	2
SCL	28	288	2	96	48	0
TAP	28	336	3
TAP	29	0	2
STR	29	48	4
SCR	29	48	4	96	48	6
TAP	29	96	3
TAP	29	144	4
TAP	29	192	3
TAP	29	240	5
TAP	29	288	3
TAP	29	312	4
TAP	29	336	3
TAP	29	360	4
TAP	30	0	2
TAP	30	24	1
TAP	30	48	0
TAP	30	72	7
TAP	30	96	0
TAP	30	96	4
TAP	30	120	1
TAP	30	120	5
TAP	30	144	2
TAP	30	144	6
TAP	30	168	3
TAP	30	168	7
BRK	30	192	0
STR	30	192	4
SUR	30	192	4	96	288	3
STR	31	96	3
SCL	31	96	3	96	288	4
STR	32	0	4
SUR	32	0	4	96	288	6
STR	32	288	6
SSL	32	288	6	96	288	2
STR	33	192	2
SCR	33	192	2	96	288	0
STR	34	96	0
SSL	34	96	0	96	288	4
STR	35	0	4
SCL	35	0	4	96	288	7
TAP	35	96	5
TAP	35	192	6
STR	35	288	7
SCR	35	288	7	96	288	4
TAP	36	0	6
TAP	36	96	5
STR	36	192	4
SUR	36	192	4	96	288	7
STR	37	96	7
SCL	37	96	7	96	288	0
STR	38	0	0
SUR	38	0	0	96	288	2
STR	38	288	2
SSL	38	288	2	96	288	6
STR	39	192	6
SCR	39	192	6	96	96	2
STR	39	288	2
SCR	39	288	2	96	96	6
STR	40	0	6
SCR	40	0	6	96	96	2
TAP	40	96	2
TAP	40	192	6
BRK	40	288	3
TAP	40	300	2
TAP	40	312	1
TAP	40	324	0
TAP	40	336	7
TAP	40	348	6
TAP	40	360	5
TAP	40	372	4
TAP	41	0	3
TAP	41	0	7
STR	41	48	7
SI_	41	48	7	96	48	3
TAP	41	96	0
STR	41	144	0
SI_	41	144	0	96	48	4
STR	41	240	6
SI_	41	240	6	96	48	3
STR	41	336	1
SI_	41	336	1	96	48	4
TAP	42	48	5
TAP	42	144	2
TAP	42	240	4
STR	42	288	3
SCL	42	288	3	96	96	4
TAP	43	240	4
TAP	43	288	4
TAP	43	336	4
TAP	44	0	5
TAP	44	48	5
TAP	44	96	5
TAP	44	144	6
TAP	44	144	7
TAP	44	168	0
TAP	44	192	1
TAP	44	192	6
TAP	44	216	2
TAP	44	240	3
TAP	44	240	7
TAP	44	264	4
TAP	44	288	3
TAP	44	288	6
TAP	44	312	2
TAP	44	336	1
TAP	44	336	6
TAP	44	360	0
TAP	45	0	5
TAP	45	48	2
TAP	45	96	1
TAP	45	144	0
TAP	45	192	7
TAP	45	216	6
TAP	45	240	5
TAP	45	264	4
TAP	45	288	3
TAP	45	312	2
STR	45	336	1
SI_	45	336	1	96	48	5
TAP	45	360	0
TAP	46	0	7
TAP	46	24	6
TAP	46	48	5
TAP	46	144	2
HLD	46	192	6	96
TAP	46	240	5
TAP	46	288	5
HLD	46	336	1	96
TAP	47	0	2
TAP	47	48	2
HLD	47	96	7	96
TAP	47	144	6
TAP	47	192	6
HLD	47	240	0	96
TAP	47	288	1
TAP	47	336	1
TAP	48	0	7
TAP	48	48	0
TAP	48	96	1
TAP	48	120	2
TAP	48	144	3
TAP	48	168	4
TAP	48	192	5
TAP	48	216	6
TAP	48	240	7
TAP	48	264	0
TAP	48	288	1
TAP	48	288	5
TAP	48	312	2
TAP	48	312	6
TAP	48	336	3
TAP	48	336	7
TAP	48	360	4
TAP	49	0	3
TAP	49	24	2
TAP	49	48	1
TAP	49	72	0
TAP	49	96	7
TAP	49	120	6
TAP	49	144	5
TAP	49	240	3
TAP	49	240	4
TAP	49	336	1
TAP	49	336	6
TAP	50	96	6
TAP	50	96	7
TAP	50	144	0
TAP	50	144	1
TAP	50	240	1
TAP	50	240	6
TAP	50	336	3
TAP	50	336	4
TAP	51	48	2
TAP	51	48	5
TAP	51	96	4
TAP	51	144	3
TAP	51	192	2
TAP	51	240	1
TAP	51	240	6
TAP	51	336	0
TAP	51	336	7
TAP	52	0	0
TAP	52	0	7
TAP	52	96	1
TAP	52	96	6
TAP	52	144	7
TAP	52	192	0
TAP	52	336	1
TAP	52	336	6
TAP	53	0	0
TAP	53	24	7
TAP	53	48	6
TAP	53	72	5
TAP	53	96	6
TAP	53	120	7
TAP	53	144	0
TAP	53	168	1
TAP	53	192	2
TAP	53	216	3
TAP	53	240	4
TAP	53	264	5
TAP	53	288	6
TAP	53	312	7
TAP	53	336	0
TAP	53	360	1
HLD	54	0	2	672
HLD	54	0	6	672
TAP	56	0	1
TAP	56	48	2
TAP	56	144	2
TAP	56	240	3
TAP	56	288	2
TAP	57	48	1
TAP	57	96	0
TAP	57	144	7
TAP	57	192	6
TAP	57	240	5
TAP	57	336	5
TAP	58	48	4
TAP	58	96	5
BRK	58	288	1
TAP	59	0	7
TAP	59	48	6
TAP	59	96	5
TAP	59	144	7
TAP	59	192	6
TAP	59	240	5
TAP	59	288	4
TAP	59	336	5
TAP	60	0	6
TAP	60	48	5
TAP	60	96	6
TAP	60	144	7
TAP	60	192	0
TAP	60	240	1
TAP	60	288	2
TAP	60	336	0
TAP	61	0	1
TAP	61	48	2
TAP	61	96	3
TAP	61	144	2
TAP	61	192	1
TAP	61	240	1
TAP	61	288	0
TAP	62	0	1
TAP	62	0	6
TAP	62	48	2
TAP	62	48	5
TAP	62	144	2
TAP	62	144	5
TAP	62	240	3
TAP	62	240	4
TAP	62	288	2
TAP	62	288	5
TAP	63	48	1
TAP	63	48	6
TAP	63	96	0
TAP	63	96	7
TAP	63	144	0
TAP	63	144	7
TAP	63	192	1
TAP	63	192	6
TAP	63	240	2
TAP	63	240	5
TAP	63	336	2
TAP	63	336	5
TAP	64	48	3
TAP	64	48	4
TAP	64	96	2
TAP	64	96	5
BRK	64	288	1
TAP	65	0	7
TAP	65	48	6
TAP	65	96	5
TAP	65	144	7
TAP	65	192	6
TAP	65	240	5
TAP	65	288	0
TAP	65	288	4
TAP	65	312	1
TAP	65	336	2
TAP	65	336	5
TAP	66	0	6
TAP	66	48	5
TAP	66	96	0
TAP	66	96	6
TAP	66	120	1
TAP	66	144	2
TAP	66	144	7
TAP	66	192	6
STR	66	240	0
SI_	66	240	0	96	48	4
TAP	66	288	6
TAP	66	336	0
STR	67	0	7
SI_	67	0	7	96	48	2
TAP	67	48	1
TAP	67	96	7
STR	67	144	0
SI_	67	144	0	96	48	5
TAP	67	192	6
TAP	67	240	0
TAP	67	288	7
TAP	67	336	1
HLD	68	0	0	144
TAP	68	0	6
TAP	68	48	5
TAP	68	144	5
TAP	68	240	4
TAP	68	288	0
TAP	68	288	5
TAP	69	48	6
TAP	69	96	7
TAP	69	144	0
TAP	69	192	1
HLD	69	192	7	144
TAP	69	240	2
TAP	69	336	2
TAP	70	48	3
TAP	70	96	2
TAP	70	96	7
BRK	70	288	1
TAP	71	0	0
HLD	71	0	6	96
TAP	71	48	1
TAP	71	96	2
TAP	71	144	0
HLD	71	144	6	96
TAP	71	192	1
TAP	71	240	2
TAP	71	288	3
HLD	71	288	6	96
TAP	71	336	2
TAP	72	0	1
TAP	72	48	2
HLD	72	48	6	96
TAP	72	96	1
TAP	72	144	0
HLD	72	192	1	96
TAP	72	192	7
TAP	72	240	6
TAP	72	288	5
HLD	72	336	1	96
TAP	72	336	7
TAP	73	0	6
TAP	73	48	5
TAP	73	96	1
TAP	73	96	4
TAP	73	144	5
TAP	73	192	0
TAP	73	192	6
TAP	73	216	1
TAP	73	240	2
TAP	73	240	6
TAP	73	264	3
TAP	73	288	4
TAP	73	288	7
TAP	73	312	3
TAP	73	336	2
TAP	73	360	1
HLD	74	0	0	144
TAP	74	0	6
TAP	74	48	5
TAP	74	144	5
TAP	74	240	4
TAP	74	288	5
TAP	74	288	7
TAP	75	48	6
TAP	75	96	7
TAP	75	144	0
TAP	75	192	1
HLD	75	192	7	144
TAP	75	240	2
TAP	75	336	2
TAP	76	48	3
TAP	76	96	2
TAP	76	96	7
BRK	76	288	1
TAP	77	0	0
TAP	77	48	1
TAP	77	96	2
TAP	77	144	0
TAP	77	192	1
TAP	77	240	2
TAP	77	288	3
TAP	77	288	7
TAP	77	312	6
TAP	77	336	2
TAP	77	336	5
TAP	78	0	1
TAP	78	48	2
TAP	78	96	1
TAP	78	96	7
TAP	78	120	6
TAP	78	144	0
TAP	78	144	5
TAP	78	192	1
TAP	78	192	6
STR	78	240	0
SI_	78	240	0	96	48	4
TAP	78	240	7
TAP	78	336	0
STR	78	336	7
SI_	78	336	7	96	48	3
STR	79	48	1
SI_	79	48	1	96	48	4
TAP	79	48	7
TAP	79	144	1
STR	79	144	6
SI_	79	144	6	96	48	3
STR	79	240	2
SUR	79	240	2	96	144	4
TAP	79	240	6
STR	80	48	5
SCR	80	48	5	96	192	4
HLD	80	96	5	288
TAP	81	0	3
TAP	81	24	2
TAP	81	48	1
TAP	81	72	0
TAP	81	96	3
TAP	81	96	7
TAP	81	120	0
TAP	81	120	4
TAP	81	144	1
TAP	81	144	5
TAP	81	168	2
TAP	81	168	6
TAP	81	336	5
TAP	82	0	6
TAP	82	48	7
TAP	82	96	0
HLD	82	144	7	192
TAP	82	336	2
TAP	83	0	6
TAP	83	48	0
TAP	83	48	7
STR	83	96	1
SI_	83	96	1	96	48	4
TAP	83	96	6
TAP	83	144	0
TAP	83	144	7
BRK	83	240	7
STR	84	0	0
SI_	84	0	0	96	48	3
STR	84	48	3
SI_	84	48	3	96	48	0
STR	84	96	0
SI_	84	96	0	96	48	5
STR	84	144	5
SI_	84	144	5	96	48	2
TAP	84	288	4
TAP	84	336	3
HLD	85	0	3	336
STR	85	0	4
SCR	85	0	4	96	144	1
TAP	85	336	6
TAP	85	360	7
TAP	86	0	0
TAP	86	24	1
TAP	86	48	2
TAP	86	72	3
TAP	86	96	0
TAP	86	96	4
TAP	86	120	1
TAP	86	120	5
TAP	86	144	2
TAP	86	144	6
TAP	86	168	3
TAP	86	168	7
BRK	86	192	0
TAP	86	192	4
TAP	86	240	3
STR	86	288	6
SI_	86	288	6	96	48	3
STR	86	336	3
SI_	86	336	3	96	48	6
STR	87	0	6
SI_	87	0	6	96	48	1
STR	87	48	1
SI_	87	48	1	96	48	4
TAP	87	240	3
TAP	87	288	1
TAP	87	288	6
STR	88	0	5
SI_	88	0	5	96	48	2
STR	88	48	2
SI_	88	48	2	96	48	6
TAP	88	144	7
TAP	88	168	0
TAP	88	192	1
TAP	88	216	2
TAP	88	240	3
TAP	88	264	4
TAP	88	288	3
TAP	88	288	7
TAP	88	312	2
TAP	88	312	6
TAP	88	336	1
TAP	88	336	5
TAP	88	360	0
TAP	88	360	4
TAP	89	0	7
TAP	89	24	6
TAP	89	48	5
TAP	89	144	3
TAP	89	144	4
TAP	89	192	2
TAP	89	192	5
STR	89	288	2
SI_	89	288	2	96	48	7
STR	89	336	7
SI_	89	336	7	96	48	4
TAP	90	96	6
TAP	90	144	7
TAP	90	192	0
TAP	90	240	1
TAP	90	240	6
TAP	91	0	0
TAP	91	0	4
TAP	91	24	1
TAP	91	24	5
TAP	91	48	2
TAP	91	48	6
TAP	91	72	3
TAP	91	72	7
TAP	91	96	2
TAP	91	96	6
TAP	91	120	1
TAP	91	120	5
TAP	91	144	0
TAP	91	144	4
TAP	91	240	1
TAP	91	240	7
STR	91	336	1
SV_	91	336	1	96	48	2
STR	91	336	5
SV_	91	336	5	96	48	4
STR	92	0	2
SCL	92	0	2	96	48	7
STR	92	0	4
SCR	92	0	4	96	48	7
TAP	92	240	1
TAP	92	240	5
TAP	92	336	0
TAP	92	336	7
TAP	93	96	3
TAP	93	96	4
TAP	93	144	1
TAP	93	144	6
TAP	93	192	2
TAP	93	192	5
TAP	93	240	0
TAP	93	240	7
TAP	93	336	3
TAP	93	336	4
TAP	94	0	0
TAP	94	0	7
STR	94	96	0
SI_	94	96	0	96	48	3
TAP	94	144	7
TAP	94	192	0
STR	94	240	7
SI_	94	240	7	96	48	4
TAP	94	288	0
TAP	94	336	7
TAP	95	0	1
TAP	95	24	2
TAP	95	48	3
TAP	95	72	4
TAP	95	96	5
TAP	95	120	6
TAP	95	144	7
TAP	95	168	0
TAP	95	192	7
TAP	95	216	6
TAP	95	240	5
TAP	95	264	4
TAP	95	288	3
TAP	95	312	2
TAP	95	336	7
TAP	95	360	6
TAP	96	0	5
TAP	96	24	4
TAP	96	48	0
TAP	96	72	1
TAP	96	96	2
TAP	96	120	3
TAP	96	144	6
TAP	96	168	5
BRK	96	192	0
TAP	96	216	7
TAP	96	240	1
TAP	96	264	6
TAP	96	288	0
TAP	96	312	7
TAP	96	336	1
TAP	96	360	6
TAP	97	0	0
TAP	97	24	7
TAP	97	48	1
TAP	97	72	6
TAP	97	96	0
TAP	97	120	7
TAP	97	144	1
TAP	97	168	6
TAP	97	192	0
TAP	97	216	7
TAP	97	240	1
TAP	97	264	6
TAP	97	288	0
TAP	97	312	7
TAP	97	336	1
TAP	97	360	6
TAP	98	0	0
TAP	98	24	7
TAP	98	48	1
TAP	98	72	6
TAP	98	96	0
TAP	98	120	7
TAP	98	144	1
TAP	98	168	6
TAP	98	192	0
TAP	98	216	7
TAP	98	240	1
TAP	98	264	6
TAP	98	288	0
TAP	98	312	7
TAP	98	336	1
TAP	98	360	6
TAP	99	0	0
TAP	99	24	7
TAP	99	48	1
TAP	99	72	6
STR	99	96	0
SSL	99	96	0	96	96	4
STR	99	96	7
SSR	99	96	7	96	96	3
TAP	99	120	0
TAP	99	120	7
TAP	99	144	0
TAP	99	144	7
TAP	99	168	0
TAP	99	168	7

T_REC_TAP	672
T_REC_BRK	10
T_REC_XTP	0
T_REC_HLD	27
T_REC_XHO	0
T_REC_STR	75
T_REC_BST	0
T_REC_XST	0
T_REC_TTP	0
T_REC_THO	0
T_REC_SLD	75
T_REC_ALL	859
T_NUM_TAP	747
T_NUM_BRK	10
T_NUM_HLD	27
T_NUM_SLD	75
T_NUM_ALL	859
T_JUDGE_TAP	757
T_JUDGE_HLD	111
T_JUDGE_SLD	75
T_JUDGE_ALL	943
TTM_EACHPAIRS	135
TTM_SCR_TAP	373500
TTM_SCR_BRK	26000
TTM_SCR_HLD	27000
TTM_SCR_SLD	112500
TTM_SCR_ALL	539000
TTM_SCR_S	521900
TTM_SCR_SS	538000
TTM_RAT_ACV	10018

