VERSION	0.00.00	1.03.00
FES_MODE	0
BPM_DEF	200.000	200.000	200.000	200.000
MET_DEF	4	4
RESOLUTION	384
CLK_DEF	384
COMPATIBLE_CODE	MA2

BPM	0	0	200.000
MET	0	0	4	4

TAP	1	336	2
TAP	2	0	3
TAP	2	48	2
TAP	2	96	3
TAP	2	144	2
TAP	2	192	3
TAP	2	288	2
TAP	2	336	2
TAP	2	336	3
TAP	3	48	3
TAP	3	96	3
TAP	3	96	4
STR	3	288	2
SI_	3	288	2	96	96	5
TAP	4	192	5
TAP	4	240	5
TAP	4	336	4
TAP	5	0	4
TAP	5	96	5
TAP	5	144	5
TAP	5	240	3
TAP	5	288	4
TAP	5	336	3
TAP	6	0	4
TAP	6	48	2
TAP	6	48	5
TAP	6	336	6
TAP	7	0	7
TAP	7	48	6
TAP	7	96	7
TAP	7	144	6
TAP	7	192	7
TAP	7	288	6
TAP	7	336	6
TAP	7	336	7
TAP	8	48	7
TAP	8	96	0
TAP	8	96	7
STR	8	288	6
SI_	8	288	6	96	96	1
TAP	9	192	1
TAP	9	240	1
TAP	9	336	0
TAP	10	0	0
TAP	10	96	1
TAP	10	144	1
TAP	10	240	7
TAP	10	288	0
TAP	10	336	7
TAP	11	0	0
TAP	11	48	1
TAP	11	48	6
HLD	12	0	2	144
HLD	12	144	1	144
STR	12	288	0
SCR	12	288	0	96	192	6
STR	13	192	7
SUR	13	192	7	96	192	4
TAP	14	96	6
TAP	14	288	3
HLD	15	0	5	144
HLD	15	144	6	144
STR	15	288	7
SCL	15	288	7	96	192	1
STR	16	192	0
SUL	16	192	0	96	192	3
TAP	17	96	1
TAP	17	288	4
BRK	18	0	1
BRK	18	0	6
TAP	18	192	0
TAP	18	288	1
TAP	19	0	2
TAP	19	96	3
TAP	19	192	4
TAP	19	288	5
TAP	20	0	6
TAP	20	96	7
TAP	20	192	3
TAP	20	288	2
TAP	21	0	1
TAP	21	96	0
TAP	21	192	7
TAP	21	288	6
TAP	22	0	5
TAP	22	96	4
TAP	22	192	3
TAP	22	240	4
TAP	22	288	3
TAP	22	336	4
TAP	23	48	2
TAP	23	48	3
TAP	23	144	4
TAP	23	144	5
TAP	23	240	6
TAP	23	240	7
TAP	23	336	0
TAP	23	336	1
TAP	24	48	7
STR	24	96	0
SI_	24	96	0	96	96	3
TAP	25	48	5
TAP	25	96	4
TAP	25	144	5
TAP	25	192	2
TAP	25	240	3
TAP	25	288	2
TAP	25	336	5
TAP	26	0	3
TAP	26	48	5
TAP	26	96	2
TAP	26	144	4
TAP	26	192	2
TAP	26	240	4
TAP	26	288	3
TAP	26	336	4
TAP	27	0	2
TAP	27	48	5
TAP	27	96	2
TAP	27	144	5
TAP	27	192	1
TAP	27	240	0
TAP	27	288	1
TAP	27	336	6
TAP	28	0	7
TAP	28	48	6
TAP	28	96	1
TAP	28	144	7
TAP	28	192	1
TAP	28	240	6
TAP	28	288	0
TAP	28	336	6
TAP	29	0	0
TAP	29	48	7
TAP	29	96	0
TAP	29	144	7
TAP	29	192	6
TAP	29	240	5
TAP	29	288	4
TAP	29	336	3
TAP	30	0	2
TAP	30	48	1
TAP	30	96	0
TAP	30	144	7
HLD	30	192	0	144
HLD	30	336	1	144
TAP	31	96	2
TAP	31	192	3
TAP	31	288	4
TAP	31	288	6
HLD	32	0	7	144
HLD	32	144	6	144
TAP	32	288	5
TAP	33	0	4
TAP	33	96	1
TAP	33	96	3
HLD	33	192	2	144
HLD	33	336	0	144
TAP	34	96	6
TAP	34	192	6
TAP	34	288	4
TAP	34	288	6
HLD	35	0	5	144
HLD	35	144	7	144
TAP	35	288	1
TAP	36	0	1
TAP	36	96	1
TAP	36	96	3
STR	36	192	2
SI_	36	192	2	96	96	5
STR	36	336	0
SCL	36	336	0	96	96	5
TAP	37	96	2
TAP	37	192	3
TAP	37	288	4
STR	38	0	5
SI_	38	0	5	96	96	2
STR	38	144	7
SCR	38	144	7	96	96	2
TAP	38	288	5
TAP	39	0	4
TAP	39	96	3
STR	39	192	0
SCR	39	192	0	96	96	4
STR	39	336	7
SCL	39	336	7	96	96	3
TAP	40	96	0
TAP	40	192	7
TAP	40	288	0
TAP	40	288	7
TAP	41	0	7
TAP	41	48	0
TAP	41	96	7
TAP	41	144	0
TAP	41	240	6
TAP	41	240	7
TAP	41	336	0
TAP	41	336	1
TAP	42	48	2
TAP	42	48	3
TAP	42	144	4
TAP	42	144	5
TAP	42	240	3
STR	42	288	4
SI_	42	288	4	96	96	7
TAP	43	240	2
TAP	43	288	3
TAP	43	336	2
TAP	44	0	5
TAP	44	48	4
TAP	44	96	5
TAP	44	144	2
TAP	44	192	4
TAP	44	240	2
TAP	44	288	5
TAP	44	336	3
TAP	45	0	5
TAP	45	48	3
TAP	45	96	4
TAP	45	144	3
TAP	45	192	2
STR	45	192	5
SUR	45	192	5	96	144	2
TAP	46	144	6
TAP	46	192	7
TAP	46	240	6
TAP	46	288	1
TAP	46	336	0
TAP	47	0	1
TAP	47	48	5
TAP	47	96	7
TAP	47	144	5
TAP	47	192	2
TAP	47	240	0
TAP	47	288	2
TAP	47	336	7
TAP	48	0	0
TAP	48	48	7
STR	48	96	1
SUR	48	96	1	96	144	6
TAP	48	96	6
TAP	49	0	7
TAP	49	144	2
TAP	49	144	5
TAP	49	336	0
TAP	49	336	7
TAP	50	96	3
TAP	50	96	4
TAP	50	144	3
TAP	50	144	4
TAP	50	240	1
TAP	50	240	4
TAP	50	336	3
TAP	50	336	6
TAP	51	48	4
TAP	51	96	3
TAP	51	144	4
TAP	51	192	3
TAP	51	240	4
TAP	51	336	2
TAP	51	336	5
TAP	52	0	2
TAP	52	0	5
STR	52	192	6
SI_	52	192	6	96	96	3
STR	52	336	1
SUR	52	336	1	96	240	4
BRK	54	0	0
BRK	54	0	7
TAP	56	0	2
TAP	56	48	2
TAP	56	144	1
TAP	56	144	3
TAP	56	240	2
TAP	56	288	2
TAP	57	48	7
TAP	57	96	6
TAP	57	144	5
TAP	57	192	2
TAP	57	192	4
TAP	57	240	2
TAP	57	240	4
TAP	57	336	3
TAP	58	48	2
TAP	58	48	4
TAP	58	96	2
TAP	58	96	4
TAP	58	288	1
TAP	58	288	6
STR	59	0	0
SI_	59	0	0	96	96	4
TAP	59	48	0
STR	59	144	7
SI_	59	144	7	96	96	5
TAP	59	192	7
STR	59	288	0
SI_	59	288	0	96	96	2
TAP	59	336	0
STR	60	48	7
SI_	60	48	7	96	96	3
TAP	60	96	7
STR	60	192	0
SCR	60	192	0	96	96	3
TAP	60	240	0
STR	60	336	7
SCL	60	336	7	96	96	4
TAP	61	0	7
STR	61	96	0
SSL	61	96	0	96	96	4
TAP	61	144	0
TAP	61	240	5
TAP	62	0	5
TAP	62	48	5
TAP	62	144	4
TAP	62	144	6
TAP	62	240	5
TAP	62	288	5
TAP	63	48	0
TAP	63	96	1
TAP	63	144	2
TAP	63	192	3
TAP	63	192	5
TAP	63	240	3
TAP	63	240	5
TAP	63	336	4
TAP	64	48	3
TAP	64	48	5
TAP	64	96	3
TAP	64	96	5
TAP	64	288	1
TAP	64	288	6
STR	65	0	7
SI_	65	0	7	96	96	3
TAP	65	48	7
STR	65	144	0
SI_	65	144	0	96	96	2
TAP	65	192	0
STR	65	288	7
SI_	65	288	7	96	96	5
TAP	65	336	7
STR	66	48	0
SI_	66	48	0	96	96	4
TAP	66	96	0
STR	66	192	7
SCL	66	192	7	96	96	4
TAP	66	240	7
STR	66	336	0
SCR	66	336	0	96	96	3
TAP	67	0	0
STR	67	96	7
SSR	67	96	7	96	96	3
TAP	67	144	7
TAP	67	240	2
STR	68	0	2
SI_	68	0	2	96	96	5
TAP	68	48	2
TAP	68	144	6
STR	68	240	7
SI_	68	240	7	96	96	4
TAP	68	288	7
TAP	69	48	3
TAP	69	96	2
TAP	69	144	1
STR	69	192	0
SI_	69	192	0	96	96	3
TAP	69	240	0
TAP	69	336	5
STR	70	48	6
SI_	70	48	6	96	96	1
TAP	70	96	6
TAP	70	288	2
TAP	71	0	7
TAP	71	48	6
TAP	71	96	5
TAP	71	144	0
TAP	71	192	1
TAP	71	240	2
TAP	71	288	6
TAP	71	336	5
TAP	72	0	4
TAP	72	48	1
TAP	72	96	2
TAP	72	144	3
TAP	72	192	5
TAP	72	240	4
TAP	72	288	3
TAP	72	336	2
TAP	73	0	3
TAP	73	48	4
TAP	73	96	0
TAP	73	144	7
TAP	73	192	6
TAP	73	240	7
TAP	73	288	0
TAP	73	336	1
STR	74	0	5
SI_	74	0	5	96	96	2
TAP	74	48	5
TAP	74	144	1
STR	74	240	0
SI_	74	240	0	96	96	3
TAP	74	288	0
TAP	75	48	4
TAP	75	96	5
TAP	75	144	6
STR	75	192	7
SI_	75	192	7	96	96	4
TAP	75	240	7
TAP	75	336	2
STR	76	48	1
SI_	76	48	1	96	96	6
TAP	76	96	1
TAP	76	288	5
TAP	77	0	0
TAP	77	48	2
TAP	77	96	4
TAP	77	144	7
TAP	77	192	5
TAP	77	240	3
TAP	77	288	1
TAP	77	336	7
TAP	78	0	4
TAP	78	48	6
TAP	78	96	0
TAP	78	144	3
TAP	78	192	1
TAP	78	192	6
TAP	78	240	1
TAP	78	240	6
TAP	78	288	0
TAP	78	288	7
TAP	78	336	0
TAP	78	336	7
TAP	79	48	3
TAP	79	48	4
TAP	79	144	1
TAP	79	144	2
TAP	79	240	5
TAP	79	240	6
TAP	79	336	0
TAP	79	336	7
TAP	80	48	1
HLD	80	96	1	288
HLD	81	0	4	336
TAP	81	336	7
TAP	82	0	6
TAP	82	48	5
TAP	82	96	4
HLD	82	144	3	192
TAP	82	336	4
TAP	83	0	5
TAP	83	48	6
STR	83	96	6
SUR	83	96	6	96	192	1
TAP	84	192	0
HLD	84	240	0	96
HLD	84	336	7	144
STR	85	96	0
SUR	85	96	0	96	192	3
TAP	86	192	7
TAP	86	240	0
TAP	86	288	7
TAP	86	336	1
TAP	86	336	6
TAP	87	144	0
TAP	87	144	2
TAP	87	288	1
TAP	87	288	3
STR	88	96	2
SV_	88	96	2	96	96	5
TAP	89	48	4
TAP	89	48	6
TAP	89	192	5
TAP	89	192	7
TAP	89	336	4
TAP	89	336	6
TAP	90	48	2
TAP	90	48	5
TAP	90	96	2
TAP	90	96	5
STR	90	240	4
SI_	90	240	4	96	96	0
STR	91	0	3
SI_	91	0	3	96	96	7
TAP	91	144	4
TAP	91	336	6
TAP	91	336	7
TAP	92	96	0
TAP	92	96	1
TAP	92	192	2
TAP	92	192	3
TAP	92	240	2
TAP	92	240	3
TAP	92	336	0
TAP	92	336	7
TAP	93	48	4
TAP	93	48	5
TAP	93	96	4
TAP	93	96	5
TAP	93	192	2
TAP	93	240	1
TAP	93	240	3
TAP	93	336	5
TAP	94	0	4
TAP	94	0	6
TAP	94	192	2
TAP	94	192	5
TAP	94	336	3
TAP	94	336	4
STR	95	0	3
SSL	95	0	3	96	288	7
TAP	95	0	4
TAP	96	192	0
TAP	96	216	7
TAP	96	240	0
TAP	96	264	7
TAP	96	288	0
TAP	96	312	7
TAP	96	336	0
TAP	96	360	7
TAP	97	0	0
TAP	97	24	7
TAP	97	48	0
TAP	97	72	7
TAP	97	96	0
TAP	97	120	7
TAP	97	144	0
TAP	97	168	7
TAP	97	192	0
TAP	97	216	7
TAP	97	240	0
TAP	97	264	7
TAP	97	288	0
TAP	97	312	7
TAP	97	336	0
TAP	97	360	7
TAP	98	0	0
TAP	98	24	7
TAP	98	48	0
TAP	98	72	7
TAP	98	96	0
TAP	98	120	7
TAP	98	144	0
TAP	98	168	7
TAP	98	192	0
TAP	98	216	7
TAP	98	240	0
TAP	98	264	7
TAP	98	288	0
TAP	98	312	7
TAP	98	336	0
TAP	98	360	7
TAP	99	0	0
TAP	99	24	7
TAP	99	48	0
TAP	99	72	7
TAP	99	96	0
TAP	99	120	7
TAP	99	144	0
TAP	99	168	7
BRK	99	192	1

T_REC_TAP	447
T_REC_BRK	5
T_REC_XTP	0
T_REC_HLD	17
T_REC_XHO	0
T_REC_STR	46
T_REC_BST	0
T_REC_XST	0
T_REC_TTP	0
T_REC_THO	0
T_REC_SLD	46
T_REC_ALL	561
T_NUM_TAP	493
T_NUM_BRK	5
T_NUM_HLD	17
T_NUM_SLD	46
T_NUM_ALL	561
T_JUDGE_TAP	498
T_JUDGE_HLD	58
T_JUDGE_SLD	46
T_JUDGE_ALL	602
TTM_EACHPAIRS	71
TTM_SCR_TAP	246500
TTM_SCR_BRK	13000
TTM_SCR_HLD	17000
TTM_SCR_SLD	69000
TTM_SCR_ALL	345500
TTM_SCR_S	334650
TTM_SCR_SS	345000
TTM_RAT_ACV	10014

