VERSION	0.00.00	1.03.00
FES_MODE	0
BPM_DEF	200.000	200.000	200.000	200.000
MET_DEF	4	4
RESOLUTION	384
CLK_DEF	384
COMPATIBLE_CODE	MA2

BPM	0	0	200.000
MET	0	0	4	4

TAP	7	0	1
TAP	7	96	1
TAP	7	192	2
TAP	7	288	2
TAP	8	0	3
TAP	8	96	3
TAP	8	192	2
TAP	8	192	4
TAP	9	0	6
TAP	9	96	6
HLD	9	192	5	192
TAP	10	0	4
HLD	10	144	2	144
TAP	10	288	3
HLD	11	48	4	144
TAP	11	192	3
HLD	12	0	2	144
TAP	12	144	3
TAP	12	240	1
TAP	12	288	1
HLD	13	192	5	144
TAP	13	336	4
TAP	14	48	6
TAP	14	96	6
HLD	15	0	1	144
TAP	15	144	0
TAP	15	240	2
TAP	15	288	2
HLD	16	192	6	144
TAP	16	336	7
TAP	17	48	5
TAP	17	96	5
STR	17	192	3
SI_	17	192	3	96	192	7
TAP	18	192	0
TAP	18	192	6
TAP	18	288	0
TAP	19	0	1
TAP	19	96	1
TAP	19	192	2
TAP	19	288	2
TAP	20	0	1
TAP	20	0	3
TAP	20	192	1
TAP	20	192	7
TAP	20	288	7
TAP	21	0	6
TAP	21	96	6
TAP	21	192	5
TAP	21	288	5
TAP	22	0	4
TAP	22	0	6
TAP	22	192	0
TAP	22	192	7
TAP	22	288	1
TAP	23	0	2
TAP	23	96	3
TAP	23	192	4
TAP	23	288	5
STR	24	0	6
SI_	24	0	6	96	192	2
TAP	25	96	1
TAP	25	144	1
TAP	25	240	2
TAP	25	288	2
TAP	26	0	3
TAP	26	48	3
TAP	26	144	4
TAP	26	192	4
TAP	26	288	5
TAP	26	336	5
TAP	27	48	6
TAP	27	96	6
TAP	27	192	5
TAP	27	240	5
TAP	27	336	4
TAP	28	0	4
TAP	28	96	3
TAP	28	144	3
TAP	28	240	2
TAP	28	288	2
TAP	29	0	1
TAP	29	48	1
TAP	29	144	0
TAP	29	192	0
TAP	29	288	7
TAP	30	0	6
TAP	30	96	5
TAP	30	192	3
TAP	30	192	4
TAP	30	336	2
TAP	30	336	5
TAP	31	96	1
TAP	31	96	6
TAP	32	0	0
TAP	32	0	7
TAP	32	144	1
TAP	32	144	6
TAP	32	288	2
TAP	32	288	5
TAP	33	192	2
TAP	33	192	3
TAP	33	336	4
TAP	33	336	5
TAP	34	96	1
TAP	34	96	6
TAP	35	0	5
TAP	35	96	6
TAP	35	192	7
TAP	35	288	0
TAP	36	0	1
TAP	36	96	2
TAP	36	192	3
TAP	36	192	4
TAP	36	336	4
TAP	36	336	5
TAP	37	96	3
TAP	37	96	6
TAP	38	0	3
TAP	38	0	4
TAP	38	144	2
TAP	38	144	3
TAP	38	288	1
TAP	38	288	4
TAP	39	192	4
TAP	39	192	5
TAP	39	336	2
TAP	39	336	3
TAP	40	96	1
TAP	40	96	6
TAP	41	0	0
TAP	41	0	7
TAP	41	96	6
TAP	41	192	5
TAP	41	288	4
TAP	42	0	3
TAP	42	96	2
STR	42	192	1
SUR	42	192	1	96	288	6
TAP	43	288	5
TAP	44	0	4
TAP	44	0	5
TAP	44	96	2
TAP	44	192	2
TAP	44	192	3
TAP	44	288	1
TAP	45	0	0
TAP	45	0	1
STR	45	96	7
SI_	45	96	7	96	192	3
TAP	46	192	2
TAP	46	288	2
TAP	46	288	3
TAP	47	0	5
TAP	47	96	4
TAP	47	96	5
TAP	47	192	6
TAP	47	288	6
TAP	47	288	7
STR	48	0	0
SI_	48	0	0	96	192	4
HLD	49	144	5	192
TAP	49	336	4
TAP	50	96	7
TAP	50	144	7
TAP	50	240	6
TAP	50	336	5
TAP	51	48	4
TAP	51	96	3
TAP	51	144	4
TAP	51	192	3
TAP	51	240	4
HLD	51	336	2	240
TAP	52	192	3
HLD	52	336	5	432
STR	54	0	4
SSL	54	0	4	96	480	0
TAP	56	0	0
TAP	56	144	1
TAP	56	288	2
TAP	56	288	3
TAP	57	96	3
TAP	57	96	4
TAP	57	192	5
TAP	57	336	6
TAP	58	96	0
TAP	58	96	7
TAP	58	288	1
TAP	58	288	6
HLD	59	0	0	144
TAP	59	144	7
HLD	59	288	0	144
TAP	60	48	6
HLD	60	192	0	144
TAP	60	336	5
HLD	61	96	0	144
TAP	61	240	4
TAP	62	0	7
TAP	62	144	6
TAP	62	288	4
TAP	62	288	5
TAP	63	96	3
TAP	63	96	4
TAP	63	192	2
TAP	63	336	1
TAP	64	96	0
TAP	64	96	7
TAP	64	288	1
TAP	64	288	6
HLD	65	0	7	144
TAP	65	144	3
HLD	65	288	7	144
TAP	66	48	2
HLD	66	192	7	144
BRK	66	336	1
HLD	67	96	7	144
BRK	67	240	0
TAP	68	0	0
TAP	68	48	0
TAP	68	144	1
TAP	68	240	2
TAP	68	288	2
TAP	69	96	3
TAP	69	96	4
TAP	69	192	5
TAP	69	240	5
TAP	69	336	6
TAP	70	48	7
TAP	70	96	7
TAP	70	288	1
TAP	70	288	6
HLD	71	0	2	144
TAP	71	144	3
HLD	71	288	5	144
TAP	72	48	4
HLD	72	192	6	144
TAP	72	336	7
HLD	73	96	1	144
TAP	73	240	0
TAP	74	0	7
TAP	74	48	7
TAP	74	144	6
TAP	74	240	5
TAP	74	288	5
TAP	75	96	3
TAP	75	96	4
TAP	75	192	2
TAP	75	240	2
TAP	75	336	1
TAP	76	48	0
TAP	76	96	0
TAP	76	288	1
TAP	76	288	6
HLD	77	0	5	144
BRK	77	144	4
HLD	77	288	2	144
BRK	78	48	3
HLD	78	192	4	144
TAP	78	336	3
TAP	79	48	2
TAP	79	144	3
TAP	79	240	4
TAP	79	336	5
HLD	80	48	5	336
HLD	81	0	3	336
TAP	81	336	4
TAP	82	48	2
HLD	82	144	2	192
STR	82	336	1
SCL	82	336	1	96	336	5
TAP	84	192	4
TAP	84	288	5
STR	85	0	6
SCR	85	0	6	96	336	2
TAP	86	192	3
TAP	86	192	4
TAP	86	336	0
TAP	86	336	7
TAP	87	144	1
TAP	87	144	6
TAP	87	240	0
TAP	87	240	7
TAP	87	288	0
TAP	87	288	7
STR	88	96	1
SI_	88	96	1	96	144	4
TAP	89	48	4
TAP	89	48	5
TAP	89	192	2
TAP	89	192	3
STR	90	0	1
SCR	90	0	1	96	288	6
HLD	91	144	7	192
TAP	91	336	0
TAP	92	96	0
TAP	92	144	0
TAP	92	240	1
TAP	92	336	2
TAP	93	48	3
TAP	93	96	4
TAP	93	144	3
TAP	93	192	4
TAP	93	240	3
HLD	93	336	5	240
TAP	94	192	4
HLD	94	336	2	1776
HLD	96	192	6	1152

T_REC_TAP	251
T_REC_BRK	4
T_REC_XTP	0
T_REC_HLD	32
T_REC_XHO	0
T_REC_STR	10
T_REC_BST	0
T_REC_XST	0
T_REC_TTP	0
T_REC_THO	0
T_REC_SLD	10
T_REC_ALL	307
T_NUM_TAP	261
T_NUM_BRK	4
T_NUM_HLD	32
T_NUM_SLD	10
T_NUM_ALL	307
T_JUDGE_TAP	265
T_JUDGE_HLD	173
T_JUDGE_SLD	10
T_JUDGE_ALL	448
TTM_EACHPAIRS	50
TTM_SCR_TAP	130500
TTM_SCR_BRK	10400
TTM_SCR_HLD	32000
TTM_SCR_SLD	15000
TTM_SCR_ALL	187900
TTM_SCR_S	181900
TTM_SCR_SS	187500
TTM_RAT_ACV	10021

