VERSION	0.00.00	1.03.00
FES_MODE	0
BPM_DEF	200.000	200.000	200.000	200.000
MET_DEF	4	4
RESOLUTION	384
CLK_DEF	384
COMPATIBLE_CODE	MA2

BPM	0	0	200.000
MET	0	0	4	4

TAP	12	0	2
TAP	12	288	2
TAP	13	192	5
TAP	14	96	5
TAP	15	0	2
TAP	15	288	2
TAP	16	192	5
TAP	17	96	5
TAP	18	192	0
TAP	19	0	1
TAP	19	96	1
TAP	19	288	2
TAP	20	0	2
TAP	20	192	7
TAP	20	288	7
TAP	21	0	6
TAP	21	96	6
TAP	21	192	5
TAP	22	0	3
TAP	22	0	4
TAP	22	192	3
TAP	22	288	3
TAP	23	96	2
TAP	23	192	2
TAP	24	0	1
HLD	24	96	1	192
TAP	25	48	0
TAP	25	48	1
TAP	25	336	6
TAP	25	336	7
TAP	26	240	4
TAP	26	240	5
TAP	27	192	2
TAP	27	192	3
TAP	28	96	4
TAP	28	96	5
TAP	29	0	6
TAP	29	0	7
TAP	29	288	0
TAP	29	288	1
TAP	30	192	2
TAP	30	192	3
TAP	31	96	1
TAP	31	96	4
TAP	32	0	0
TAP	32	0	1
TAP	32	288	2
TAP	32	288	7
TAP	33	192	6
TAP	33	192	7
TAP	34	96	0
TAP	34	96	5
TAP	35	0	5
TAP	35	144	5
TAP	35	288	4
TAP	36	48	4
TAP	36	192	4
TAP	36	192	5
TAP	37	96	3
TAP	37	96	6
TAP	38	0	6
TAP	38	0	7
TAP	38	288	0
TAP	38	288	5
TAP	39	192	0
TAP	39	192	1
TAP	40	96	2
TAP	40	96	7
TAP	41	0	2
TAP	41	96	2
TAP	41	288	3
TAP	42	0	3
TAP	42	192	4
TAP	42	288	4
TAP	43	240	3
TAP	44	0	3
TAP	44	144	4
TAP	44	288	4
TAP	45	48	3
TAP	45	192	3
TAP	45	336	3
TAP	45	336	4
TAP	46	192	5
TAP	46	336	5
TAP	47	96	2
TAP	47	240	2
TAP	48	0	5
TAP	48	144	5
TAP	48	288	2
TAP	48	288	5
STR	49	144	3
SI_	49	144	3	96	528	7
TAP	52	192	0
TAP	52	336	0
BRK	54	0	0
BRK	54	0	7
TAP	56	0	1
TAP	56	288	3
TAP	56	288	4
TAP	57	192	6
TAP	58	96	3
TAP	58	96	4
TAP	59	0	0
TAP	59	0	1
TAP	59	288	0
TAP	59	288	7
TAP	60	192	6
TAP	60	192	7
TAP	61	96	1
TAP	61	96	6
TAP	62	0	6
TAP	62	144	6
TAP	62	288	0
TAP	62	288	7
TAP	63	192	1
TAP	63	336	1
TAP	64	96	0
TAP	64	96	7
TAP	65	0	2
TAP	65	144	2
TAP	65	288	3
TAP	66	48	3
TAP	66	192	4
TAP	66	336	4
TAP	67	96	5
BRK	67	240	5
TAP	68	0	6
TAP	68	144	7
TAP	68	288	0
TAP	68	288	6
TAP	69	192	1
TAP	69	336	0
TAP	70	96	1
TAP	70	96	7
TAP	71	0	5
TAP	71	144	5
TAP	71	288	4
TAP	72	48	4
TAP	72	192	3
TAP	72	336	3
TAP	73	96	2
BRK	73	240	2
TAP	74	0	2
TAP	74	144	3
TAP	74	288	2
TAP	74	288	4
TAP	75	192	5
TAP	75	336	4
TAP	76	96	3
TAP	76	96	5
TAP	77	0	4
TAP	77	0	5
TAP	77	144	4
TAP	77	144	5
TAP	77	288	2
TAP	77	288	3
TAP	78	48	2
TAP	78	48	3
TAP	78	192	1
TAP	78	336	1
TAP	79	96	0
TAP	79	240	0
TAP	79	240	7
HLD	80	96	7	288
TAP	81	336	0
TAP	81	336	7
HLD	82	144	0	288
TAP	84	192	1
TAP	84	192	6
HLD	85	96	1	288
HLD	85	96	6	288
TAP	86	192	0
TAP	86	192	7
TAP	87	144	4
TAP	87	144	5
TAP	88	96	2
TAP	88	96	3
TAP	89	48	3
TAP	89	48	4
TAP	89	192	2
TAP	89	192	5
TAP	90	192	6
TAP	91	144	0
TAP	91	144	7
TAP	91	336	1
TAP	92	96	1
TAP	92	240	2
TAP	92	336	2
TAP	93	96	3
TAP	93	192	3
TAP	93	336	4
TAP	94	192	3
TAP	94	192	4
TAP	94	336	2
TAP	94	336	5
HLD	96	192	3	1152
TAP	99	192	4

T_REC_TAP	185
T_REC_BRK	4
T_REC_XTP	0
T_REC_HLD	6
T_REC_XHO	0
T_REC_STR	1
T_REC_BST	0
T_REC_XST	0
T_REC_TTP	0
T_REC_THO	0
T_REC_SLD	1
T_REC_ALL	197
T_NUM_TAP	186
T_NUM_BRK	4
T_NUM_HLD	6
T_NUM_SLD	1
T_NUM_ALL	197
T_JUDGE_TAP	190
T_JUDGE_HLD	52
T_JUDGE_SLD	1
T_JUDGE_ALL	243
TTM_EACHPAIRS	51
TTM_SCR_TAP	93000
TTM_SCR_BRK	10400
TTM_SCR_HLD	6000
TTM_SCR_SLD	1500
TTM_SCR_ALL	110900
TTM_SCR_S	107200
TTM_SCR_SS	110500
TTM_RAT_ACV	10036

