VERSION	0.00.00	1.03.00
FES_MODE	0
BPM_DEF	140.000	140.000	140.000	140.000
MET_DEF	4	4
RESOLUTION	384
CLK_DEF	384
COMPATIBLE_CODE	MA2

BPM	0	0	140.000
MET	0	0	4	4

HLD	2	0	7	192
TAP	2	96	6
TAP	2	144	5
HLD	2	192	4	192
TAP	2	288	7
TAP	2	336	0
HLD	3	0	1	192
STR	3	96	2
SUL	3	96	2	96	96	5
TAP	3	144	3
BRK	3	288	7
STR	4	0	1
SI_	4	0	1	96	48	4
STR	4	0	4
SI_	4	0	4	96	48	0
TAP	4	96	1
TAP	4	96	4
STR	4	192	3
SI_	4	192	3	96	48	7
STR	4	192	6
SI_	4	192	6	96	48	3
TAP	4	288	3
TAP	4	288	6
STR	5	0	0
SI_	5	0	0	96	48	3
STR	5	0	4
SI_	5	0	4	96	48	7
TAP	5	96	0
TAP	5	96	4
TAP	5	192	3
TAP	5	192	4
TAP	5	240	2
TAP	5	240	5
BRK	5	288	1
BRK	5	288	6
TAP	6	0	7
HLD	6	48	7	96
TAP	6	96	5
HLD	6	144	5	96
TAP	6	192	4
HLD	6	240	4	96
TAP	6	288	0
HLD	6	336	0	96
TAP	7	0	2
HLD	7	48	2	96
TAP	7	96	3
HLD	7	144	3	96
TAP	7	192	4
TAP	7	240	4
BRK	7	288	2
BRK	7	288	5
TAP	8	0	6
TAP	8	24	7
TAP	8	48	5
TAP	8	72	0
TAP	8	96	4
TAP	8	120	1
TAP	8	144	3
TAP	8	168	2
TAP	8	192	5
TAP	8	216	4
TAP	8	240	6
TAP	8	264	3
TAP	8	288	7
TAP	8	312	2
TAP	8	336	0
TAP	8	360	1
TAP	9	0	6
TAP	9	24	4
TAP	9	48	6
TAP	9	72	4
STR	9	96	7
SCL	9	96	7	96	48	3
TAP	9	120	1
TAP	9	144	7
TAP	9	168	1
TAP	9	192	7
BRK	9	288	7
TAP	10	0	4
TAP	10	0	5
TAP	10	48	6
TAP	10	96	4
TAP	10	96	5
TAP	10	144	3
TAP	10	192	4
TAP	10	192	5
TAP	10	240	4
TAP	10	240	5
TAP	10	336	2
TAP	10	336	3
STR	11	0	2
SI_	11	0	2	96	48	6
TAP	11	0	3
STR	11	96	7
SCR	11	96	7	96	96	4
TAP	11	192	4
BRK	11	288	0
TAP	12	0	4
TAP	12	0	5
TAP	12	48	3
TAP	12	96	4
TAP	12	96	5
TAP	12	144	6
TAP	12	192	4
TAP	12	192	5
TAP	12	240	4
TAP	12	240	5
TAP	12	336	1
TAP	12	336	3
STR	13	0	1
SI_	13	0	1	96	48	5
TAP	13	0	3
STR	13	96	0
SI_	13	96	0	96	48	4
TAP	13	192	3
BRK	13	288	0
BRK	13	288	5
TAP	14	0	2
TAP	14	0	3
TAP	14	48	4
TAP	14	96	2
TAP	14	96	3
TAP	14	144	1
TAP	14	192	2
TAP	14	192	3
TAP	14	240	2
TAP	14	240	3
TAP	14	336	4
TAP	14	336	5
TAP	15	0	4
STR	15	0	5
SI_	15	0	5	96	48	1
STR	15	96	0
SUL	15	96	0	96	48	4
SUR	15	96	0	96	48	4
BRK	15	288	7
TAP	16	0	2
TAP	16	0	3
TAP	16	48	4
TAP	16	96	2
TAP	16	96	3
TAP	16	144	1
TAP	16	192	2
TAP	16	192	3
TAP	16	240	2
TAP	16	240	3
TAP	16	336	4
TAP	16	336	5
TAP	17	0	4
STR	17	0	5
SI_	17	0	5	96	48	1
STR	17	96	0
SSL	17	96	0	96	48	4
BRK	17	288	2
BRK	17	288	6
STR	18	0	0
SCL	18	0	0	96	96	3
TAP	18	0	1
HLD	18	96	0	144
BRK	18	240	5
BRK	18	312	5
TAP	19	0	6
STR	19	0	7
SCR	19	0	7	96	96	4
HLD	19	96	7	144
TAP	19	240	2
TAP	19	288	1
STR	20	0	0
SCL	20	0	0	96	96	3
TAP	20	0	1
HLD	20	96	0	144
BRK	20	240	5
BRK	20	312	5
STR	21	0	2
SI_	21	0	2	96	48	7
STR	21	0	6
SI_	21	0	6	96	48	3
TAP	21	96	2
STR	21	96	6
SUL	21	96	6	96	48	1
TAP	21	192	6
BRK	21	288	7
STR	22	0	4
SCL	22	0	4	96	96	7
TAP	22	0	6
HLD	22	96	4	144
BRK	22	240	0
BRK	22	312	0
TAP	23	0	1
STR	23	0	3
SCR	23	0	3	96	96	0
HLD	23	96	3	144
TAP	23	240	6
TAP	23	288	5
STR	24	0	4
SCL	24	0	4	96	96	7
TAP	24	0	6
HLD	24	96	4	144
BRK	24	240	0
BRK	24	312	0
STR	25	0	2
SI_	25	0	2	96	48	7
STR	25	0	6
SI_	25	0	6	96	48	3
TAP	25	96	2
STR	25	96	6
SCL	25	96	6	96	48	1
TAP	25	192	6
BRK	25	288	7
TAP	26	0	3
STR	26	0	4
SI_	26	0	4	96	48	6
TAP	26	48	2
TAP	26	96	3
TAP	26	96	4
STR	26	192	4
SI_	26	192	4	96	48	2
TAP	26	192	5
TAP	26	240	6
TAP	26	288	4
TAP	26	288	5
STR	27	0	4
SI_	27	0	4	96	48	7
TAP	27	0	5
TAP	27	48	3
TAP	27	96	2
TAP	27	96	4
TAP	27	192	3
STR	27	192	4
SI_	27	192	4	96	48	1
TAP	27	240	5
TAP	27	288	4
TAP	27	288	6
TAP	28	0	2
STR	28	0	3
SI_	28	0	3	96	48	5
TAP	28	48	4
TAP	28	96	2
TAP	28	96	3
STR	28	192	3
SI_	28	192	3	96	48	1
TAP	28	192	4
TAP	28	240	2
TAP	28	288	3
TAP	28	288	4
STR	29	0	3
SI_	29	0	3	96	48	6
TAP	29	0	4
TAP	29	48	2
TAP	29	96	1
TAP	29	96	3
TAP	29	192	2
STR	29	192	3
SI_	29	192	3	96	48	0
TAP	29	240	4
TAP	29	288	3
TAP	29	288	5
STR	30	0	0
SI_	30	0	0	96	48	3
TAP	30	0	6
TAP	30	48	7
TAP	30	96	0
TAP	30	96	1
TAP	30	192	1
STR	30	192	7
SI_	30	192	7	96	48	4
TAP	30	240	0
TAP	30	288	6
TAP	30	288	7
STR	31	0	0
SI_	31	0	0	96	48	5
TAP	31	0	6
TAP	31	48	7
TAP	31	96	0
TAP	31	96	1
TAP	31	192	1
STR	31	192	7
SI_	31	192	7	96	48	2
TAP	31	240	0
TAP	31	288	6
TAP	31	288	7
STR	32	0	6
SI_	32	0	6	96	48	4
TAP	32	48	6
STR	32	96	7
SI_	32	96	7	96	48	4
TAP	32	144	7
STR	32	192	0
SI_	32	192	0	96	48	4
TAP	32	240	0
STR	32	288	1
SI_	32	288	1	96	48	4
TAP	32	336	1
STR	33	0	0
SI_	33	0	0	96	48	3
TAP	33	48	0
STR	33	96	7
SI_	33	96	7	96	48	3
TAP	33	144	7
STR	33	192	6
SI_	33	192	6	96	48	3
TAP	33	240	6
BRK	33	288	0
STR	34	0	1
SXL	34	0	1	96	480	4
STR	35	0	6
SXR	35	0	6	96	480	3
STR	36	0	0
SXR	36	0	0	96	480	5
STR	37	0	4
SXR	37	0	4	96	480	1
STR	38	0	0
SXR	38	0	0	96	480	3
STR	39	0	5
SXR	39	0	5	96	480	0
STR	40	0	1
SXR	40	0	1	96	480	4
STR	41	0	7
SI_	41	0	7	96	96	4
BRK	41	288	3
BRK	41	288	4
HLD	42	0	4	672
TAP	42	0	5
TAP	42	48	5
TAP	42	96	6
TAP	42	144	6
TAP	42	192	7
TAP	42	240	7
TAP	42	288	0
TAP	42	336	0
TAP	43	0	1
TAP	43	48	1
TAP	43	96	2
TAP	43	144	2
STR	43	192	3
SI_	43	192	3	96	48	1
TAP	43	240	3
TAP	44	0	2
HLD	44	0	3	672
TAP	44	48	2
TAP	44	96	1
TAP	44	144	1
TAP	44	192	0
TAP	44	240	0
TAP	44	288	7
TAP	44	336	7
TAP	45	0	6
TAP	45	48	6
TAP	45	96	5
TAP	45	144	5
STR	45	192	4
SI_	45	192	4	96	48	6
TAP	45	240	4
STR	46	0	7
SI_	46	0	7	96	48	5
TAP	46	48	7
STR	46	96	3
SI_	46	96	3	96	48	1
TAP	46	144	3
STR	46	192	6
SI_	46	192	6	96	48	4
TAP	46	240	6
STR	46	288	2
SI_	46	288	2	96	48	0
TAP	46	336	2
STR	47	0	5
SI_	47	0	5	96	48	3
TAP	47	48	5
STR	47	96	1
SI_	47	96	1	96	48	7
TAP	47	144	1
STR	47	192	4
SI_	47	192	4	96	48	0
TAP	47	240	4
TAP	47	288	3
TAP	47	336	3
HLD	48	0	3	48
HLD	48	48	7	48
HLD	48	96	4	48
HLD	48	144	0	48
HLD	48	192	5	48
TAP	48	240	1
STR	48	288	1
SUR	48	288	1	96	96	6
TAP	48	288	5
TAP	48	312	0
TAP	48	312	4
TAP	48	336	3
TAP	48	336	7
TAP	48	360	2
TAP	48	360	6
TAP	49	0	1
STR	49	0	5
SUR	49	0	5	96	96	2
STR	49	192	4
SI_	49	192	4	96	48	0
SI_	49	192	4	96	48	7
BRK	49	288	4
TAP	50	0	0
STR	50	0	4
SCR	50	0	4	96	36	7
STR	50	96	0
SUL	50	96	0	96	48	3
TAP	50	108	1
TAP	50	120	2
TAP	50	132	3
TAP	50	288	1
TAP	50	300	2
TAP	50	312	3
TAP	50	324	4
TAP	51	0	0
STR	51	0	4
SCL	51	0	4	96	36	1
STR	51	96	0
SUR	51	96	0	96	36	5
TAP	51	108	7
TAP	51	120	6
TAP	51	132	5
TAP	51	288	0
TAP	51	300	7
TAP	51	312	6
TAP	51	324	5
TAP	52	0	0
STR	52	0	4
SCR	52	0	4	96	36	7
STR	52	96	0
SUL	52	96	0	96	48	3
TAP	52	108	1
TAP	52	120	2
TAP	52	132	3
TAP	52	288	0
TAP	52	300	1
TAP	52	312	2
TAP	52	324	3
TAP	52	336	4
TAP	52	348	5
TAP	52	360	6
TAP	52	372	7
HLD	53	0	0	96
STR	53	96	4
SI_	53	96	4	96	48	0
TAP	53	144	5
TAP	53	192	4
BST	53	192	6
SI_	53	192	6	96	48	2
BRK	53	288	6
STR	54	0	0
SCR	54	0	0	96	36	3
TAP	54	0	4
STR	54	96	4
SUL	54	96	4	96	48	7
TAP	54	108	5
TAP	54	120	6
TAP	54	132	7
TAP	54	288	5
TAP	54	300	6
TAP	54	312	7
TAP	54	324	0
STR	55	0	0
SCL	55	0	0	96	36	5
TAP	55	0	4
STR	55	96	4
SUR	55	96	4	96	36	1
TAP	55	108	3
TAP	55	120	2
TAP	55	132	1
TAP	55	288	3
TAP	55	300	2
TAP	55	312	1
TAP	55	324	0
STR	56	0	0
SCR	56	0	0	96	36	3
TAP	56	0	4
STR	56	96	4
SUL	56	96	4	96	48	7
TAP	56	108	5
TAP	56	120	6
TAP	56	132	7
STR	56	192	4
SUR	56	192	4	96	48	0
STR	56	288	4
SXR	56	288	4	96	144	0
TAP	57	192	4
TAP	57	240	3
TAP	57	240	5
BRK	57	288	2
BRK	57	288	6
STR	58	0	1
SCL	58	0	1	96	36	6
TAP	58	0	5
STR	58	96	5
SUR	58	96	5	96	48	2
TAP	58	108	4
TAP	58	120	3
TAP	58	132	2
TAP	58	288	6
TAP	58	300	5
TAP	58	312	4
TAP	58	324	3
STR	59	0	3
SCR	59	0	3	96	36	6
TAP	59	0	7
STR	59	96	7
SUL	59	96	7	96	48	2
TAP	59	108	0
TAP	59	120	1
TAP	59	132	2
TAP	59	288	7
TAP	59	300	0
TAP	59	312	1
TAP	59	324	2
STR	60	0	2
SCR	60	0	2	96	36	5
TAP	60	0	6
STR	60	96	6
SUL	60	96	6	96	48	1
TAP	60	108	7
TAP	60	120	0
TAP	60	132	1
TAP	60	288	6
TAP	60	300	7
TAP	60	312	0
TAP	60	324	1
TAP	60	336	2
TAP	60	348	3
TAP	60	360	4
TAP	60	372	5
HLD	61	0	6	96
STR	61	96	0
SI_	61	96	0	96	48	4
TAP	61	144	1
TAP	61	144	7
BST	61	192	0
SI_	61	192	0	96	48	3
SI_	61	192	0	96	48	5
BRK	61	288	0
TAP	62	0	1
STR	62	0	5
SCL	62	0	5	96	36	2
STR	62	96	1
SUR	62	96	1	96	48	6
TAP	62	108	0
TAP	62	120	7
TAP	62	132	6
TAP	62	288	2
TAP	62	300	1
TAP	62	312	0
TAP	62	324	7
TAP	63	0	3
STR	63	0	7
SCR	63	0	7	96	36	2
STR	63	96	3
SUL	63	96	3	96	48	6
TAP	63	108	4
TAP	63	120	5
TAP	63	132	6
TAP	63	288	3
TAP	63	300	4
TAP	63	312	5
TAP	63	324	6
TAP	64	0	2
STR	64	0	6
SCR	64	0	6	96	36	1
STR	64	96	2
SUL	64	96	2	96	48	5
TAP	64	108	3
TAP	64	120	4
TAP	64	132	5
STR	64	288	0
SUL	64	288	0	96	96	3
STR	65	0	4
SUL	65	0	4	96	96	6
BST	65	192	0
SF_	65	192	0	96	48	4
TAP	66	0	6
TAP	66	0	7
TAP	66	48	0
TAP	66	48	5
TAP	66	96	2
TAP	66	120	3
TAP	66	144	1
TAP	66	192	5
TAP	66	216	4
TAP	66	240	6
TAP	66	288	0
TAP	66	288	1
TAP	66	336	3
TAP	66	336	4
STR	67	0	2
SCL	67	0	2	96	48	7
TAP	67	48	2
STR	67	96	4
SUL	67	96	4	96	48	7
TAP	67	144	4
TAP	67	192	3
TAP	67	240	3
BRK	67	288	1
BRK	67	288	5
TAP	68	0	0
TAP	68	0	1
TAP	68	48	2
TAP	68	48	7
TAP	68	96	5
TAP	68	120	4
TAP	68	144	6
TAP	68	192	2
TAP	68	216	3
TAP	68	240	1
TAP	68	288	6
STR	68	288	7
SCR	68	288	7	96	48	3
TAP	68	336	0
TAP	68	336	5
STR	69	0	6
SUR	69	0	6	96	48	3
TAP	69	48	6
STR	69	96	7
SCR	69	96	7	96	48	3
TAP	69	144	7
TAP	69	192	4
TAP	69	240	4
BST	69	288	1
SUR	69	288	1	96	48	6
BRK	69	288	6
TAP	70	96	6
TAP	70	120	7
TAP	70	144	5
TAP	70	192	1
TAP	70	216	0
TAP	70	240	2
TAP	70	288	4
TAP	70	288	5
TAP	70	336	0
TAP	70	336	7
STR	71	0	1
SCL	71	0	1	96	48	5
TAP	71	48	1
STR	71	96	4
SI_	71	96	4	96	48	0
TAP	71	144	4
TAP	71	192	3
TAP	71	240	3
BRK	71	288	1
BRK	71	288	6
TAP	72	0	3
TAP	72	0	4
TAP	72	48	2
TAP	72	48	5
TAP	72	96	6
TAP	72	120	7
TAP	72	144	4
TAP	72	192	1
TAP	72	216	0
TAP	72	240	3
STR	72	288	1
SI_	72	288	1	96	48	4
STR	72	288	5
SI_	72	288	5	96	48	0
BST	73	0	1
SI_	73	0	1	96	48	6
BST	73	0	5
SI_	73	0	5	96	48	2
BRK	73	96	1
BRK	73	96	5
BRK	73	192	0
BST	73	192	4
SF_	73	192	4	96	48	0
BRK	74	0	2
BRK	74	0	6

T_REC_TAP	376
T_REC_BRK	40
T_REC_XTP	0
T_REC_HLD	24
T_REC_XHO	0
T_REC_STR	106
T_REC_BST	7
T_REC_XST	0
T_REC_TTP	0
T_REC_THO	0
T_REC_SLD	116
T_REC_ALL	669
T_NUM_TAP	482
T_NUM_BRK	47
T_NUM_HLD	24
T_NUM_SLD	116
T_NUM_ALL	669
T_JUDGE_TAP	529
T_JUDGE_HLD	79
T_JUDGE_SLD	116
T_JUDGE_ALL	724
TTM_EACHPAIRS	114
TTM_SCR_TAP	241000
TTM_SCR_BRK	122200
TTM_SCR_HLD	24000
TTM_SCR_SLD	174000
TTM_SCR_ALL	561200
TTM_SCR_S	539850
TTM_SCR_SS	556500
TTM_RAT_ACV	10084

