VERSION	0.00.00	1.03.00
FES_MODE	0
BPM_DEF	140.000	140.000	140.000	140.000
MET_DEF	4	4
RESOLUTION	384
CLK_DEF	384
COMPATIBLE_CODE	MA2

BPM	0	0	140.000
MET	0	0	4	4

STR	2	0	6
SCL	2	0	6	96	47	2
TAP	2	96	7
TAP	2	144	0
STR	2	192	1
SCR	2	192	1	96	48	5
TAP	2	288	0
TAP	2	336	7
STR	3	0	6
SCL	3	0	6	96	48	2
TAP	3	96	7
TAP	3	144	0
STR	3	192	1
SCR	3	192	1	96	48	5
STR	3	240	6
SCL	3	240	6	96	48	2
STR	4	0	7
SCL	4	0	7	96	48	3
TAP	4	96	0
TAP	4	144	1
STR	4	192	2
SCR	4	192	2	96	48	6
TAP	4	288	1
TAP	4	336	0
STR	5	0	7
SCL	5	0	7	96	48	3
TAP	5	96	0
TAP	5	144	1
STR	5	192	2
SCR	5	192	2	96	48	6
STR	5	240	7
SCL	5	240	7	96	48	3
TAP	6	0	0
TAP	6	48	0
TAP	6	48	1
TAP	6	96	1
TAP	6	144	1
TAP	6	144	2
TAP	6	192	2
TAP	6	240	2
TAP	6	240	3
TAP	6	288	3
TAP	6	336	3
TAP	6	336	4
TAP	7	0	4
TAP	7	48	4
TAP	7	48	5
TAP	7	96	5
TAP	7	144	5
TAP	7	144	6
TAP	7	192	6
TAP	7	240	6
TAP	7	240	7
TAP	7	288	7
TAP	7	336	0
TAP	7	336	7
TAP	8	0	0
TAP	8	24	0
TAP	8	48	1
TAP	8	72	1
TAP	8	96	2
TAP	8	120	2
TAP	8	144	3
TAP	8	168	3
TAP	8	192	4
TAP	8	216	4
TAP	8	240	5
TAP	8	264	5
TAP	8	288	6
TAP	8	312	6
TAP	8	336	7
TAP	8	360	7
TAP	9	0	0
TAP	9	12	1
TAP	9	24	2
TAP	9	36	3
TAP	9	48	4
TAP	9	60	5
TAP	9	72	6
TAP	9	84	7
TAP	9	96	0
TAP	9	108	1
TAP	9	120	2
TAP	9	132	3
TAP	9	144	4
TAP	9	156	5
TAP	9	168	6
TAP	9	180	7
STR	9	192	0
SI_	9	192	0	96	48	4
TAP	9	192	4
BRK	9	288	0
TAP	9	288	4
HLD	10	48	1	192
TAP	10	96	3
TAP	10	144	4
TAP	10	192	5
HLD	10	240	6	240
TAP	10	336	4
TAP	11	0	3
TAP	11	48	2
STR	11	96	1
SCR	11	96	1	96	96	6
STR	11	192	6
SCL	11	192	6	96	96	2
TAP	11	288	1
HLD	12	48	6	192
TAP	12	96	4
TAP	12	144	3
TAP	12	192	2
HLD	12	240	1	240
TAP	12	336	3
TAP	13	0	4
TAP	13	48	5
STR	13	96	6
SCL	13	96	6	96	96	1
STR	13	192	1
SCR	13	192	1	96	96	5
BRK	13	288	6
HLD	14	48	1	192
TAP	14	96	3
TAP	14	144	4
TAP	14	192	5
HLD	14	240	6	240
TAP	14	336	4
TAP	15	0	3
TAP	15	48	2
STR	15	96	1
SCR	15	96	1	96	96	6
STR	15	192	6
SCL	15	192	6	96	96	2
TAP	15	288	1
HLD	16	48	6	192
TAP	16	96	4
TAP	16	144	3
TAP	16	192	2
TAP	16	240	1
TAP	16	336	5
TAP	16	336	6
TAP	17	0	1
TAP	17	0	4
TAP	17	96	1
TAP	17	96	2
TAP	17	144	3
TAP	17	144	6
BRK	17	192	1
BRK	17	216	5
BRK	17	240	7
BRK	17	264	3
BRK	17	288	1
STR	18	0	1
SI_	18	0	1	96	48	6
STR	18	0	5
SI_	18	0	5	96	48	2
STR	18	48	2
SI_	18	48	2	96	32	5
STR	18	48	6
SI_	18	48	6	96	32	1
TAP	18	240	0
TAP	18	288	7
TAP	18	336	3
TAP	18	336	4
STR	19	0	1
SI_	19	0	1	96	48	6
STR	19	0	5
SI_	19	0	5	96	48	2
STR	19	48	2
SI_	19	48	2	96	32	5
STR	19	48	6
SI_	19	48	6	96	32	1
TAP	19	240	3
TAP	19	288	4
TAP	19	336	0
TAP	19	336	7
STR	20	0	2
SI_	20	0	2	96	48	7
STR	20	0	6
SI_	20	0	6	96	48	3
STR	20	48	3
SI_	20	48	3	96	32	6
STR	20	48	7
SI_	20	48	7	96	32	2
TAP	20	240	1
TAP	20	288	0
TAP	20	336	4
TAP	20	336	5
TAP	21	0	7
TAP	21	72	0
TAP	21	96	0
HLD	21	144	6	48
HLD	21	192	4	48
HLD	21	240	3	48
TAP	21	288	1
STR	22	0	2
SI_	22	0	2	96	48	5
STR	22	0	6
SI_	22	0	6	96	48	1
STR	22	48	1
SI_	22	48	1	96	32	6
STR	22	48	5
SI_	22	48	5	96	32	2
TAP	22	240	7
TAP	22	288	0
TAP	22	336	3
TAP	22	336	4
STR	23	0	2
SI_	23	0	2	96	48	5
STR	23	0	6
SI_	23	0	6	96	48	1
STR	23	48	1
SI_	23	48	1	96	32	6
STR	23	48	5
SI_	23	48	5	96	32	2
TAP	23	240	4
TAP	23	288	3
TAP	23	336	0
TAP	23	336	7
STR	24	0	1
SI_	24	0	1	96	48	4
STR	24	0	5
SI_	24	0	5	96	48	0
STR	24	48	0
SI_	24	48	0	96	32	5
STR	24	48	4
SI_	24	48	4	96	32	1
TAP	24	240	6
TAP	24	288	7
TAP	24	336	2
TAP	24	336	3
TAP	25	0	0
TAP	25	72	7
TAP	25	96	7
HLD	25	144	1	48
HLD	25	192	3	48
HLD	25	240	4	48
BRK	25	288	6
STR	26	0	1
SCR	26	0	1	96	48	4
TAP	26	24	0
TAP	26	48	1
TAP	26	72	0
TAP	26	96	1
STR	26	192	6
SCL	26	192	6	96	48	3
TAP	26	216	7
TAP	26	240	6
TAP	26	264	7
TAP	26	288	6
STR	27	0	1
SUR	27	0	1	96	48	5
TAP	27	24	0
TAP	27	48	1
TAP	27	72	0
TAP	27	96	1
STR	27	192	6
SUL	27	192	6	96	48	2
TAP	27	216	7
TAP	27	240	6
TAP	27	264	7
TAP	27	288	6
TAP	28	0	0
STR	28	0	4
SCR	28	0	4	96	48	0
TAP	28	24	1
TAP	28	48	2
TAP	28	72	3
TAP	28	96	4
TAP	28	192	1
STR	28	192	5
SCR	28	192	5	96	48	1
TAP	28	216	2
TAP	28	240	3
TAP	28	264	4
TAP	28	288	5
TAP	29	0	2
STR	29	0	6
SCR	29	0	6	96	48	2
TAP	29	24	3
TAP	29	48	4
TAP	29	72	5
TAP	29	96	6
TAP	29	192	3
STR	29	192	7
SCR	29	192	7	96	48	3
TAP	29	216	4
TAP	29	240	5
TAP	29	264	6
TAP	29	288	7
STR	30	0	3
SCL	30	0	3	96	48	7
TAP	30	0	7
TAP	30	24	6
TAP	30	48	5
TAP	30	72	4
TAP	30	96	3
STR	30	192	2
SCL	30	192	2	96	48	6
TAP	30	192	6
TAP	30	216	5
TAP	30	240	4
TAP	30	264	3
TAP	30	288	2
STR	31	0	1
SCL	31	0	1	96	48	5
TAP	31	0	5
TAP	31	24	4
TAP	31	48	3
TAP	31	72	2
TAP	31	96	1
STR	31	192	0
SCL	31	192	0	96	48	4
TAP	31	192	4
TAP	31	216	3
TAP	31	240	2
TAP	31	264	1
TAP	31	288	0
TAP	32	0	0
TAP	32	24	0
TAP	32	48	2
TAP	32	72	2
TAP	32	96	4
TAP	32	120	4
TAP	32	144	6
TAP	32	168	6
TAP	32	192	1
TAP	32	216	1
TAP	32	240	3
TAP	32	264	3
TAP	32	288	5
TAP	32	312	5
TAP	32	336	7
TAP	32	360	7
TAP	33	0	0
TAP	33	12	1
TAP	33	24	2
TAP	33	36	3
TAP	33	48	4
TAP	33	60	5
TAP	33	72	6
TAP	33	84	7
TAP	33	96	0
TAP	33	108	1
TAP	33	120	2
TAP	33	132	3
TAP	33	144	4
TAP	33	156	5
TAP	33	168	6
TAP	33	180	7
TAP	33	192	0
TAP	33	204	1
TAP	33	216	2
TAP	33	228	3
TAP	33	240	4
TAP	33	252	5
TAP	33	264	6
TAP	33	276	7
TAP	33	288	0
BRK	33	288	4
HLD	34	0	0	288
TAP	34	144	7
HLD	34	192	1	288
TAP	34	336	0
HLD	35	0	2	288
TAP	35	144	1
HLD	35	192	3	288
TAP	35	336	2
HLD	36	0	4	288
TAP	36	144	3
HLD	36	192	5	288
TAP	36	336	4
HLD	37	0	6	288
TAP	37	144	5
HLD	37	192	7	96
HLD	38	0	7	288
TAP	38	144	0
HLD	38	192	6	288
TAP	38	336	7
HLD	39	0	5	288
TAP	39	144	6
HLD	39	192	4	288
TAP	39	336	5
HLD	40	0	3	288
TAP	40	144	4
HLD	40	192	2	288
TAP	40	336	3
HLD	41	0	1	288
TAP	41	144	2
HLD	41	192	0	96
TAP	42	0	7
TAP	42	48	6
TAP	42	48	7
TAP	42	96	6
TAP	42	144	5
TAP	42	144	6
TAP	42	192	5
TAP	42	240	4
TAP	42	240	5
TAP	42	288	4
TAP	42	336	3
TAP	42	336	4
TAP	43	0	3
TAP	43	48	2
TAP	43	48	3
TAP	43	96	2
TAP	43	144	1
TAP	43	144	2
TAP	43	192	1
TAP	43	240	0
TAP	43	240	1
TAP	43	288	0
TAP	43	336	0
TAP	43	336	7
TAP	44	0	7
TAP	44	24	7
TAP	44	48	6
TAP	44	72	6
TAP	44	96	5
TAP	44	120	5
TAP	44	144	4
TAP	44	168	4
TAP	44	192	3
TAP	44	216	3
TAP	44	240	2
TAP	44	264	2
TAP	44	288	1
TAP	44	312	1
TAP	44	336	0
TAP	44	360	0
TAP	45	0	6
TAP	45	24	6
TAP	45	48	4
TAP	45	72	4
TAP	45	96	2
TAP	45	120	2
TAP	45	144	0
TAP	45	168	0
TAP	45	192	7
TAP	45	204	6
TAP	45	216	5
TAP	45	228	4
TAP	45	240	3
TAP	45	252	2
TAP	45	264	1
TAP	45	276	0
TAP	45	288	3
TAP	45	288	7
TAP	46	0	4
TAP	46	24	0
TAP	46	48	5
TAP	46	72	1
TAP	46	96	6
TAP	46	120	2
TAP	46	144	7
TAP	46	168	3
TAP	46	192	6
TAP	46	216	2
TAP	46	240	5
TAP	46	264	1
TAP	46	288	4
TAP	46	312	0
TAP	46	336	3
TAP	46	360	7
TAP	47	0	4
TAP	47	24	0
TAP	47	48	5
TAP	47	72	1
TAP	47	96	6
TAP	47	120	2
TAP	47	144	7
TAP	47	168	3
TAP	47	192	4
TAP	47	216	3
TAP	47	240	5
TAP	47	264	2
TAP	47	288	6
TAP	47	312	1
TAP	47	336	7
TAP	47	360	0
TAP	48	0	7
TAP	48	24	0
TAP	48	48	6
TAP	48	72	1
TAP	48	96	5
TAP	48	120	2
TAP	48	144	4
TAP	48	168	3
TAP	48	192	3
TAP	48	192	4
TAP	48	216	3
TAP	48	216	4
TAP	48	240	3
TAP	48	240	4
TAP	48	264	3
TAP	48	264	4
TAP	48	288	3
TAP	48	288	4
TAP	48	312	3
TAP	48	312	4
TAP	48	336	3
TAP	48	336	4
TAP	48	360	3
TAP	48	360	4
STR	49	0	3
SUR	49	0	3	96	96	4
TAP	49	0	4
TAP	49	96	3
TAP	49	96	4
TAP	49	192	6
TAP	49	216	7
TAP	49	240	0
TAP	49	264	1
BRK	49	288	2
BRK	49	288	5
STR	50	0	1
SCL	50	0	1	96	48	6
STR	50	0	5
SCL	50	0	5	96	48	2
STR	50	48	2
SCR	50	48	2	96	32	5
STR	50	48	6
SCR	50	48	6	96	32	1
TAP	50	240	1
TAP	50	240	5
TAP	50	288	2
TAP	50	288	6
TAP	50	336	3
TAP	50	336	7
STR	51	0	2
SCL	51	0	2	96	48	7
STR	51	0	6
SCL	51	0	6	96	48	3
STR	51	48	3
SCR	51	48	3	96	32	6
STR	51	48	7
SCR	51	48	7	96	32	2
TAP	51	240	2
TAP	51	240	6
TAP	51	288	1
TAP	51	288	5
TAP	51	336	0
TAP	51	336	4
STR	52	0	1
SCL	52	0	1	96	48	6
STR	52	0	5
SCL	52	0	5	96	48	2
STR	52	48	2
SCR	52	48	2	96	32	5
STR	52	48	6
SCR	52	48	6	96	32	1
TAP	52	240	1
TAP	52	240	5
TAP	52	288	0
TAP	52	288	4
TAP	52	336	3
TAP	52	336	7
STR	53	0	0
SCL	53	0	0	96	48	5
STR	53	0	4
SCL	53	0	4	96	48	1
STR	53	48	1
SCR	53	48	1	96	32	4
STR	53	48	5
SCR	53	48	5	96	32	0
TAP	53	240	2
TAP	53	240	6
TAP	53	288	3
TAP	53	288	7
BRK	53	336	0
BRK	53	336	4
STR	54	0	2
SCR	54	0	2	96	48	5
STR	54	0	6
SCR	54	0	6	96	48	1
STR	54	48	1
SCL	54	48	1	96	32	6
STR	54	48	5
SCL	54	48	5	96	32	2
TAP	54	240	2
TAP	54	240	6
TAP	54	288	1
TAP	54	288	5
TAP	54	336	0
TAP	54	336	4
STR	55	0	1
SCR	55	0	1	96	48	4
STR	55	0	5
SCR	55	0	5	96	48	0
STR	55	48	0
SCL	55	48	0	96	32	5
STR	55	48	4
SCL	55	48	4	96	32	1
TAP	55	240	1
TAP	55	240	5
TAP	55	288	2
TAP	55	288	6
TAP	55	336	3
TAP	55	336	7
STR	56	0	2
SCR	56	0	2	96	48	5
STR	56	0	6
SCR	56	0	6	96	48	1
STR	56	48	1
SCL	56	48	1	96	32	6
STR	56	48	5
SCL	56	48	5	96	32	2
TAP	56	240	2
TAP	56	240	6
TAP	56	288	3
TAP	56	288	7
TAP	56	336	0
TAP	56	336	4
STR	57	0	3
SCR	57	0	3	96	48	6
STR	57	0	7
SCR	57	0	7	96	48	2
STR	57	48	2
SCL	57	48	2	96	32	7
STR	57	48	6
SCL	57	48	6	96	32	3
TAP	57	240	1
TAP	57	240	5
TAP	57	288	0
TAP	57	288	4
BRK	57	336	3
BRK	57	336	7
STR	58	0	2
SUR	58	0	2	96	48	7
STR	58	0	3
SCR	58	0	3	96	48	6
STR	58	48	6
SCL	58	48	6	96	32	3
STR	58	48	7
SUL	58	48	7	96	32	2
TAP	58	240	0
TAP	58	240	1
TAP	58	288	2
TAP	58	288	7
TAP	58	336	3
TAP	58	336	6
STR	59	0	4
SCL	59	0	4	96	48	1
STR	59	0	5
SUL	59	0	5	96	48	0
STR	59	48	0
SUR	59	48	0	96	32	5
STR	59	48	1
SCR	59	48	1	96	32	4
TAP	59	240	6
TAP	59	240	7
TAP	59	288	0
TAP	59	288	5
TAP	59	336	1
TAP	59	336	4
STR	60	0	2
SUR	60	0	2	96	48	7
STR	60	0	3
SCR	60	0	3	96	48	6
STR	60	48	6
SCL	60	48	6	96	32	3
STR	60	48	7
SUL	60	48	7	96	32	2
TAP	60	240	0
TAP	60	240	1
TAP	60	288	2
TAP	60	288	7
TAP	60	336	3
TAP	60	336	6
STR	61	0	4
SCL	61	0	4	96	48	1
STR	61	0	5
SUL	61	0	5	96	48	0
STR	61	48	0
SUR	61	48	0	96	32	5
STR	61	48	1
SCR	61	48	1	96	32	4
TAP	61	240	6
TAP	61	240	7
TAP	61	288	6
TAP	61	288	7
BRK	61	336	2
BRK	61	336	3
STR	62	0	0
SUR	62	0	0	96	48	5
STR	62	0	1
SCR	62	0	1	96	48	4
STR	62	48	4
SCL	62	48	4	96	32	1
STR	62	48	5
SUL	62	48	5	96	33	0
TAP	62	240	2
TAP	62	240	3
TAP	62	288	1
TAP	62	288	4
TAP	62	336	0
TAP	62	336	5
STR	63	0	6
SCL	63	0	6	96	48	3
STR	63	0	7
SUL	63	0	7	96	48	2
STR	63	48	2
SUR	63	48	2	96	33	7
STR	63	48	3
SCR	63	48	3	96	33	6
TAP	63	240	4
TAP	63	240	5
TAP	63	288	3
TAP	63	288	6
TAP	63	336	2
TAP	63	336	7
STR	64	0	0
SUR	64	0	0	96	48	5
STR	64	0	1
SCR	64	0	1	96	48	4
STR	64	48	4
SCL	64	48	4	96	32	1
STR	64	48	5
SUL	64	48	5	96	33	0
TAP	64	240	6
TAP	64	240	7
TAP	64	288	0
TAP	64	288	5
TAP	64	336	1
TAP	64	336	4
TAP	65	0	2
STR	65	0	3
SUR	65	0	3	96	96	4
TAP	65	96	3
STR	65	96	4
SCR	65	96	4	96	96	3
BRK	65	288	7
STR	66	0	1
SCR	66	0	1	96	96	5
STR	66	96	6
SCL	66	96	6	96	96	2
STR	66	192	1
SCR	66	192	1	96	96	5
STR	66	288	6
SCL	66	288	6	96	96	2
STR	67	0	1
SCR	67	0	1	96	96	5
STR	67	96	6
SCL	67	96	6	96	96	2
STR	67	192	1
SCR	67	192	1	96	96	5
STR	67	288	6
SCL	67	288	6	96	96	2
STR	68	0	1
SCR	68	0	1	96	96	5
STR	68	96	6
SCL	68	96	6	96	96	2
STR	68	192	1
SCR	68	192	1	96	96	5
STR	68	288	6
SCL	68	288	6	96	96	2
STR	69	0	1
SCR	69	0	1	96	96	5
STR	69	96	6
SCL	69	96	6	96	96	2
BRK	69	192	1
TAP	69	288	6
STR	70	0	1
SCR	70	0	1	96	96	5
TAP	70	48	1
STR	70	96	6
SCL	70	96	6	96	96	2
TAP	70	144	6
STR	70	192	1
SCR	70	192	1	96	96	5
TAP	70	240	1
STR	70	288	6
SCL	70	288	6	96	96	2
TAP	70	336	6
STR	71	0	1
SCR	71	0	1	96	96	5
TAP	71	48	1
STR	71	96	6
SCL	71	96	6	96	96	2
TAP	71	144	6
STR	71	192	1
SCR	71	192	1	96	96	5
TAP	71	240	1
STR	71	288	6
SCL	71	288	6	96	96	2
TAP	71	336	6
STR	72	0	1
SCR	72	0	1	96	96	5
TAP	72	48	1
STR	72	96	6
SCL	72	96	6	96	96	2
TAP	72	144	6
TAP	72	192	1
TAP	72	240	1
TAP	72	288	6
TAP	72	336	6
STR	73	0	3
SUR	73	0	3	96	96	4
TAP	73	0	4
TAP	73	96	3
STR	73	96	4
SCR	73	96	4	96	96	3
STR	73	288	7
SI_	73	288	7	96	24	3

T_REC_TAP	468
T_REC_BRK	19
T_REC_XTP	0
T_REC_HLD	29
T_REC_XHO	0
T_REC_STR	143
T_REC_BST	0
T_REC_XST	0
T_REC_TTP	0
T_REC_THO	0
T_REC_SLD	143
T_REC_ALL	802
T_NUM_TAP	611
T_NUM_BRK	19
T_NUM_HLD	29
T_NUM_SLD	143
T_NUM_ALL	802
T_JUDGE_TAP	630
T_JUDGE_HLD	125
T_JUDGE_SLD	143
T_JUDGE_ALL	898
TTM_EACHPAIRS	140
TTM_SCR_TAP	305500
TTM_SCR_BRK	49400
TTM_SCR_HLD	29000
TTM_SCR_SLD	214500
TTM_SCR_ALL	598400
TTM_SCR_S	578650
TTM_SCR_SS	596500
TTM_RAT_ACV	10031

