VERSION	0.00.00	1.03.00
FES_MODE	0
BPM_DEF	140.000	140.000	140.000	140.000
MET_DEF	4	4
RESOLUTION	384
CLK_DEF	384
COMPATIBLE_CODE	MA2

BPM	0	0	140.000
MET	0	0	4	4

TAP	2	0	4
HLD	2	0	5	96
TAP	2	96	4
TAP	2	144	4
HLD	2	192	2	96
TAP	2	192	3
TAP	2	288	3
TAP	2	336	3
HLD	3	0	4	48
HLD	3	0	5	48
HLD	3	96	2	48
HLD	3	96	3	48
STR	3	192	0
SI_	3	192	0	96	48	4
STR	3	192	7
SI_	3	192	7	96	48	3
HLD	4	0	2	96
TAP	4	0	3
TAP	4	96	1
TAP	4	192	4
HLD	4	192	5	96
TAP	4	288	6
HLD	5	0	2	96
TAP	5	0	3
TAP	5	96	1
STR	5	192	0
SI_	5	192	0	96	48	4
STR	5	192	7
SI_	5	192	7	96	48	3
TAP	5	240	0
TAP	5	240	7
TAP	6	0	4
HLD	6	0	5	96
TAP	6	96	6
HLD	6	192	2	96
TAP	6	192	3
TAP	6	288	1
HLD	7	0	6	96
TAP	7	0	7
TAP	7	96	5
TAP	7	192	0
HLD	7	192	1	96
TAP	7	288	2
STR	8	0	7
SCL	8	0	7	96	48	4
STR	8	96	3
SCL	8	96	3	96	48	0
STR	8	192	7
SCL	8	192	7	96	48	4
STR	8	288	3
SCL	8	288	3	96	48	0
STR	9	0	7
SCL	9	0	7	96	48	4
STR	9	96	3
SCL	9	96	3	96	48	0
TAP	9	192	7
BRK	9	288	1
BRK	9	288	5
HLD	10	0	2	288
TAP	10	0	3
TAP	10	96	7
TAP	10	192	1
TAP	10	288	7
TAP	11	0	4
HLD	11	0	5	288
TAP	11	96	0
TAP	11	192	6
TAP	11	288	0
HLD	12	0	2	288
TAP	12	0	3
TAP	12	96	7
TAP	12	192	1
TAP	12	288	7
TAP	13	0	4
TAP	13	0	5
TAP	13	48	4
TAP	13	96	0
TAP	13	96	4
TAP	13	192	2
TAP	13	192	3
TAP	13	240	3
TAP	13	288	3
TAP	13	288	7
TAP	14	0	0
HLD	14	0	1	192
TAP	14	96	4
TAP	14	192	2
TAP	14	240	3
TAP	14	288	1
TAP	14	288	4
HLD	15	0	6	192
TAP	15	0	7
TAP	15	96	3
TAP	15	192	5
TAP	15	240	4
TAP	15	288	3
TAP	15	288	6
TAP	16	0	0
HLD	16	0	1	192
TAP	16	96	4
TAP	16	192	2
TAP	16	240	3
TAP	16	288	1
TAP	16	288	4
TAP	17	0	2
TAP	17	0	5
TAP	17	96	3
TAP	17	96	4
STR	17	192	3
SI_	17	192	3	96	48	1
TAP	17	216	4
TAP	17	240	3
TAP	17	264	4
HLD	18	0	5	48
HLD	18	0	6	48
HLD	18	96	0	96
HLD	18	96	3	96
TAP	18	240	0
TAP	18	240	1
TAP	18	312	1
TAP	18	312	3
HLD	19	0	1	48
HLD	19	0	2	48
HLD	19	96	4	96
HLD	19	96	7	96
TAP	19	240	5
TAP	19	288	4
TAP	19	336	5
HLD	20	0	5	48
HLD	20	0	6	48
HLD	20	96	0	96
HLD	20	96	3	96
TAP	20	240	0
TAP	20	240	1
TAP	20	312	1
TAP	20	312	3
STR	21	0	6
SI_	21	0	6	96	48	3
STR	21	96	2
SI_	21	96	2	96	48	7
HLD	21	192	6	96
TAP	21	288	5
HLD	22	0	1	48
HLD	22	0	2	48
HLD	22	96	4	96
HLD	22	96	7	96
TAP	22	240	6
TAP	22	240	7
TAP	22	312	4
TAP	22	312	6
HLD	23	0	5	48
HLD	23	0	6	48
HLD	23	96	0	96
HLD	23	96	3	96
TAP	23	240	2
TAP	23	288	3
TAP	23	336	2
HLD	24	0	1	48
HLD	24	0	2	48
HLD	24	96	4	96
HLD	24	96	7	96
TAP	24	240	6
TAP	24	240	7
TAP	24	312	4
TAP	24	312	6
HLD	25	0	3	192
TAP	25	0	4
TAP	25	96	2
HLD	25	192	4	96
TAP	25	288	5
TAP	26	0	2
TAP	26	48	3
TAP	26	96	5
TAP	26	144	4
TAP	26	192	3
TAP	26	240	2
TAP	26	288	4
TAP	26	336	5
TAP	27	0	5
TAP	27	48	4
TAP	27	96	2
TAP	27	144	3
TAP	27	192	4
TAP	27	240	5
TAP	27	288	3
TAP	27	336	2
TAP	28	0	1
TAP	28	48	3
TAP	28	96	6
TAP	28	144	4
TAP	28	192	3
TAP	28	240	1
TAP	28	288	4
TAP	28	336	6
TAP	29	0	6
TAP	29	48	4
TAP	29	96	1
TAP	29	144	3
TAP	29	192	4
TAP	29	240	6
BRK	29	288	0
STR	30	0	0
SI_	30	0	0	96	48	4
TAP	30	48	0
TAP	30	96	7
STR	30	192	7
SI_	30	192	7	96	48	3
TAP	30	240	7
TAP	30	288	0
STR	31	0	1
SI_	31	0	1	96	48	4
TAP	31	48	1
TAP	31	96	0
STR	31	192	6
SI_	31	192	6	96	48	3
TAP	31	240	6
TAP	31	288	7
STR	32	0	0
SI_	32	0	0	96	48	4
TAP	32	48	0
TAP	32	96	7
STR	32	192	7
SI_	32	192	7	96	48	3
TAP	32	240	7
TAP	32	288	0
STR	33	0	1
SI_	33	0	1	96	48	4
TAP	33	48	1
STR	33	96	6
SI_	33	96	6	96	48	3
TAP	33	144	6
STR	33	192	0
SI_	33	192	0	96	48	4
TAP	33	240	0
BRK	33	288	7
HLD	34	0	1	384
HLD	34	192	2	96
HLD	35	0	6	384
HLD	35	192	5	96
HLD	36	0	2	384
HLD	36	192	1	96
HLD	37	0	5	384
HLD	37	192	6	96
HLD	38	0	3	384
HLD	38	192	0	96
HLD	39	0	4	384
HLD	39	192	7	96
HLD	40	0	0	384
HLD	40	192	2	96
HLD	41	0	7	288
HLD	41	192	5	96
TAP	42	0	3
TAP	42	96	3
TAP	42	192	4
TAP	42	288	4
TAP	43	0	2
TAP	43	96	2
TAP	43	192	5
TAP	43	288	3
TAP	43	288	4
TAP	44	0	4
TAP	44	96	4
TAP	44	192	3
TAP	44	288	3
TAP	45	0	6
TAP	45	96	6
TAP	45	192	1
TAP	45	288	3
TAP	45	288	4
TAP	46	0	3
TAP	46	48	3
TAP	46	96	4
TAP	46	144	4
TAP	46	192	1
TAP	46	240	1
TAP	46	288	6
TAP	46	336	6
TAP	47	0	0
TAP	47	48	0
TAP	47	96	7
TAP	47	144	7
TAP	47	192	0
TAP	47	240	0
TAP	47	288	7
TAP	47	336	7
TAP	48	0	0
TAP	48	24	7
TAP	48	48	0
TAP	48	72	7
TAP	48	96	0
TAP	48	120	7
TAP	48	144	0
TAP	48	168	7
TAP	48	192	0
TAP	48	216	7
TAP	48	240	0
TAP	48	264	7
TAP	48	288	0
TAP	49	0	3
TAP	49	0	4
STR	49	96	0
SCR	49	96	0	96	48	3
STR	49	96	7
SCL	49	96	7	96	48	4
BRK	49	288	1
BRK	49	288	6
STR	50	0	0
SCR	50	0	0	96	48	3
STR	50	0	3
SCR	50	0	3	96	48	6
TAP	50	192	2
TAP	50	192	4
TAP	50	240	1
TAP	50	240	3
TAP	50	288	0
TAP	50	288	2
STR	51	0	4
SCL	51	0	4	96	48	1
STR	51	0	7
SCL	51	0	7	96	48	4
TAP	51	192	3
TAP	51	192	5
TAP	51	240	4
TAP	51	240	6
TAP	51	288	5
TAP	51	288	7
STR	52	0	0
SCR	52	0	0	96	48	3
STR	52	0	3
SCR	52	0	3	96	48	6
TAP	52	192	2
TAP	52	192	4
TAP	52	240	1
TAP	52	240	3
TAP	52	288	0
TAP	52	288	2
HLD	53	0	2	144
HLD	53	0	6	144
TAP	53	192	0
TAP	53	192	4
TAP	53	240	0
TAP	53	240	4
BRK	53	288	2
BRK	53	288	6
STR	54	0	4
SCL	54	0	4	96	48	1
STR	54	0	7
SCL	54	0	7	96	48	4
TAP	54	192	3
TAP	54	192	5
TAP	54	240	4
TAP	54	240	6
TAP	54	288	5
TAP	54	288	7
STR	55	0	0
SCR	55	0	0	96	48	3
STR	55	0	3
SCR	55	0	3	96	48	6
TAP	55	192	2
TAP	55	192	4
TAP	55	240	1
TAP	55	240	3
TAP	55	288	0
TAP	55	288	2
STR	56	0	4
SCL	56	0	4	96	48	1
STR	56	0	7
SCL	56	0	7	96	48	4
TAP	56	192	3
TAP	56	192	5
TAP	56	240	4
TAP	56	240	6
TAP	56	288	5
TAP	56	288	7
HLD	57	0	1	144
HLD	57	0	5	144
TAP	57	192	3
TAP	57	192	7
TAP	57	240	3
TAP	57	240	7
BRK	57	288	1
BRK	57	288	5
STR	58	0	0
SCR	58	0	0	96	48	3
STR	58	0	3
SCR	58	0	3	96	48	6
TAP	58	48	0
TAP	58	48	3
TAP	58	192	3
TAP	58	192	5
TAP	58	240	2
TAP	58	240	3
TAP	58	288	0
TAP	58	288	2
STR	59	0	4
SCL	59	0	4	96	48	1
STR	59	0	7
SCL	59	0	7	96	48	4
TAP	59	48	4
TAP	59	48	7
TAP	59	192	2
TAP	59	192	4
TAP	59	240	4
TAP	59	240	5
TAP	59	288	5
TAP	59	288	7
STR	60	0	0
SCR	60	0	0	96	48	3
STR	60	0	3
SCR	60	0	3	96	48	6
TAP	60	48	0
TAP	60	48	3
TAP	60	192	3
TAP	60	192	5
TAP	60	240	2
TAP	60	240	3
TAP	60	288	0
TAP	60	288	2
HLD	61	0	2	144
HLD	61	0	6	144
TAP	61	192	0
TAP	61	192	4
TAP	61	240	0
TAP	61	240	4
BRK	61	288	2
BRK	61	288	6
STR	62	0	4
SCL	62	0	4	96	48	1
STR	62	0	7
SCL	62	0	7	96	48	4
TAP	62	48	4
TAP	62	48	7
TAP	62	192	2
TAP	62	192	4
TAP	62	240	4
TAP	62	240	5
TAP	62	288	5
TAP	62	288	7
STR	63	0	0
SCR	63	0	0	96	48	3
STR	63	0	3
SCR	63	0	3	96	48	6
TAP	63	48	0
TAP	63	48	3
TAP	63	192	3
TAP	63	192	5
TAP	63	240	2
TAP	63	240	3
TAP	63	288	0
TAP	63	288	2
STR	64	0	4
SCL	64	0	4	96	48	1
STR	64	0	7
SCL	64	0	7	96	48	4
TAP	64	48	4
TAP	64	48	7
TAP	64	192	2
TAP	64	192	4
TAP	64	240	4
TAP	64	240	5
TAP	64	288	5
TAP	64	288	7
TAP	65	0	2
TAP	65	0	3
STR	65	96	6
SCL	65	96	6	96	48	3
STR	65	96	7
SCR	65	96	7	96	48	2
BRK	65	288	0
BRK	65	288	5
HLD	66	0	3	96
HLD	66	0	7	96
TAP	66	144	0
TAP	66	144	1
TAP	66	240	4
TAP	66	240	5
TAP	66	288	4
TAP	66	336	0
TAP	66	336	4
HLD	67	0	0	96
HLD	67	0	4	96
TAP	67	144	6
TAP	67	144	7
TAP	67	240	2
TAP	67	240	3
TAP	67	288	3
TAP	67	336	3
TAP	67	336	7
HLD	68	0	3	96
HLD	68	0	7	96
TAP	68	144	0
TAP	68	144	1
TAP	68	240	4
TAP	68	240	5
TAP	68	288	4
TAP	68	336	0
TAP	68	336	4
TAP	69	0	0
TAP	69	0	4
TAP	69	96	6
TAP	69	96	7
TAP	69	192	2
TAP	69	192	3
TAP	69	240	2
TAP	69	240	3
TAP	69	288	3
TAP	69	288	7
HLD	70	0	0	96
HLD	70	0	4	96
TAP	70	144	6
TAP	70	144	7
TAP	70	240	2
TAP	70	240	3
TAP	70	288	3
TAP	70	336	3
TAP	70	336	7
HLD	71	0	3	96
HLD	71	0	7	96
TAP	71	144	0
TAP	71	144	1
TAP	71	240	4
TAP	71	240	5
TAP	71	288	4
TAP	71	336	0
TAP	71	336	4
HLD	72	0	0	96
HLD	72	0	4	96
TAP	72	144	6
TAP	72	144	7
TAP	72	240	2
TAP	72	240	3
TAP	72	288	2
TAP	72	288	4
TAP	72	336	3
TAP	72	336	5
TAP	73	0	4
TAP	73	0	5
TAP	73	96	0
STR	73	96	1
SCR	73	96	1	96	48	4
STR	73	288	7
SI_	73	288	7	96	48	3
BRK	74	0	0

T_REC_TAP	344
T_REC_BRK	15
T_REC_XTP	0
T_REC_HLD	80
T_REC_XHO	0
T_REC_STR	52
T_REC_BST	0
T_REC_XST	0
T_REC_TTP	0
T_REC_THO	0
T_REC_SLD	52
T_REC_ALL	543
T_NUM_TAP	396
T_NUM_BRK	15
T_NUM_HLD	80
T_NUM_SLD	52
T_NUM_ALL	543
T_JUDGE_TAP	411
T_JUDGE_HLD	216
T_JUDGE_SLD	52
T_JUDGE_ALL	679
TTM_EACHPAIRS	157
TTM_SCR_TAP	198000
TTM_SCR_BRK	39000
TTM_SCR_HLD	80000
TTM_SCR_SLD	78000
TTM_SCR_ALL	395000
TTM_SCR_S	381700
TTM_SCR_SS	393500
TTM_RAT_ACV	10038

