VERSION	0.00.00	1.03.00
FES_MODE	0
BPM_DEF	140.000	140.000	140.000	140.000
MET_DEF	4	4
RESOLUTION	384
CLK_DEF	384
COMPATIBLE_CODE	MA2

BPM	0	0	140.000
MET	0	0	4	4

TAP	2	0	0
TAP	2	0	1
TAP	2	192	6
TAP	2	192	7
TAP	3	0	0
TAP	3	0	7
TAP	3	96	1
TAP	3	96	6
TAP	3	192	2
TAP	3	192	5
TAP	4	0	2
TAP	4	96	2
TAP	4	192	3
TAP	4	288	3
TAP	5	0	4
TAP	5	96	4
TAP	5	192	2
TAP	5	192	5
TAP	6	0	5
TAP	6	96	5
TAP	6	192	4
TAP	6	288	4
TAP	7	0	3
TAP	7	96	3
TAP	7	192	2
TAP	7	288	2
TAP	8	0	1
TAP	8	96	2
TAP	8	192	3
TAP	8	288	4
TAP	9	0	5
TAP	9	96	6
TAP	9	192	0
TAP	9	192	7
BRK	9	288	0
BRK	9	288	7
TAP	10	0	1
STR	10	96	1
SI_	10	96	1	96	48	5
TAP	11	0	6
STR	11	96	6
SI_	11	96	6	96	48	2
TAP	12	0	0
STR	12	96	0
SI_	12	96	0	96	48	4
TAP	13	0	4
TAP	13	0	5
TAP	13	96	2
TAP	13	96	3
TAP	13	192	0
TAP	13	192	1
TAP	13	288	6
TAP	13	288	7
TAP	14	0	5
STR	14	96	5
SI_	14	96	5	96	48	1
TAP	15	0	2
STR	15	96	2
SI_	15	96	2	96	48	6
TAP	16	0	7
STR	16	96	7
SI_	16	96	7	96	48	3
TAP	17	0	2
TAP	17	0	3
TAP	17	96	4
TAP	17	96	5
TAP	17	192	0
TAP	17	192	7
TAP	17	240	0
TAP	17	240	7
BRK	17	288	0
BRK	17	288	7
TAP	18	0	1
TAP	18	48	1
TAP	18	96	1
TAP	18	192	2
TAP	18	192	3
TAP	18	288	4
TAP	18	288	5
TAP	19	0	6
TAP	19	48	6
TAP	19	96	6
TAP	19	192	4
TAP	19	192	5
TAP	19	288	2
TAP	19	288	3
TAP	20	0	1
TAP	20	48	0
TAP	20	96	1
TAP	20	192	2
TAP	20	192	4
TAP	20	288	3
TAP	20	288	5
TAP	21	0	6
TAP	21	48	7
TAP	21	96	6
TAP	21	192	1
TAP	21	240	0
TAP	21	288	1
TAP	22	0	4
TAP	22	48	3
TAP	22	96	4
TAP	22	192	0
TAP	22	192	1
TAP	22	288	6
TAP	22	288	7
TAP	23	0	2
TAP	23	48	3
TAP	23	96	2
TAP	23	192	6
TAP	23	192	7
TAP	23	288	0
TAP	23	288	1
TAP	24	0	5
TAP	24	48	4
TAP	24	96	5
TAP	24	192	1
TAP	24	192	7
TAP	24	288	0
TAP	24	288	6
TAP	25	0	7
TAP	25	48	7
TAP	25	96	6
TAP	25	96	7
TAP	25	192	0
TAP	25	240	0
TAP	25	288	0
TAP	25	288	1
TAP	26	0	2
TAP	26	48	2
TAP	26	96	2
TAP	26	192	3
TAP	26	240	3
TAP	26	288	3
TAP	27	0	4
TAP	27	48	4
TAP	27	96	4
TAP	27	192	5
TAP	27	240	5
TAP	27	288	5
TAP	28	0	6
TAP	28	48	7
TAP	28	96	6
TAP	28	192	5
TAP	28	240	4
TAP	28	288	5
TAP	29	0	2
TAP	29	48	3
TAP	29	96	2
TAP	29	192	1
TAP	29	240	0
TAP	29	288	1
TAP	30	0	2
TAP	30	48	3
TAP	30	96	4
TAP	30	96	5
TAP	30	192	5
TAP	30	240	4
TAP	30	288	2
TAP	30	288	3
TAP	31	0	1
TAP	31	48	2
TAP	31	96	3
TAP	31	96	4
TAP	31	192	6
TAP	31	240	5
TAP	31	288	3
TAP	31	288	4
TAP	32	0	0
TAP	32	48	1
TAP	32	96	2
TAP	32	96	3
TAP	32	192	7
TAP	32	240	6
TAP	32	288	4
TAP	32	288	5
TAP	33	0	0
TAP	33	48	0
TAP	33	96	7
TAP	33	144	7
TAP	33	192	0
TAP	33	240	0
BRK	33	288	0
BRK	33	288	7
HLD	34	0	1	192
TAP	34	192	2
TAP	34	288	3
TAP	34	288	4
HLD	35	0	6	192
TAP	35	192	5
TAP	35	288	3
TAP	35	288	4
HLD	36	0	2	192
TAP	36	192	3
TAP	36	288	0
TAP	36	288	6
HLD	37	0	5	192
TAP	37	192	4
TAP	37	288	1
TAP	37	288	7
HLD	38	0	2	192
TAP	38	192	1
TAP	38	288	0
TAP	38	288	7
HLD	39	0	5	192
TAP	39	192	6
TAP	39	288	0
TAP	39	288	7
HLD	40	0	1	192
TAP	40	192	0
TAP	40	288	3
TAP	40	288	5
HLD	41	0	6	192
TAP	41	192	7
TAP	41	288	2
TAP	41	288	4
TAP	42	0	3
TAP	42	96	2
TAP	42	192	1
TAP	42	288	0
TAP	43	0	7
TAP	43	96	6
TAP	43	192	5
TAP	43	288	3
TAP	43	288	4
TAP	44	0	2
TAP	44	48	3
TAP	44	96	2
TAP	44	192	0
TAP	44	192	1
TAP	44	288	6
TAP	44	288	7
TAP	45	0	5
TAP	45	48	4
TAP	45	96	5
TAP	45	192	3
TAP	45	192	6
TAP	45	288	1
TAP	45	288	4
TAP	46	0	0
TAP	46	48	1
TAP	46	96	2
TAP	46	192	7
TAP	46	240	6
TAP	46	288	5
TAP	47	0	1
TAP	47	48	2
TAP	47	96	3
TAP	47	96	4
TAP	47	192	6
TAP	47	240	5
TAP	47	288	3
TAP	47	288	4
TAP	48	0	0
TAP	48	48	1
TAP	48	96	2
TAP	48	144	3
TAP	48	192	4
TAP	48	240	5
TAP	48	288	6
TAP	48	336	0
TAP	48	336	7
BRK	49	288	1
BRK	49	288	6
HLD	50	0	2	96
HLD	50	96	3	192
TAP	50	240	1
TAP	50	288	1
HLD	51	0	5	96
HLD	51	96	4	192
TAP	51	240	6
TAP	51	288	6
HLD	52	0	7	96
HLD	52	96	0	96
TAP	52	192	7
TAP	52	288	1
TAP	52	288	6
HLD	53	0	3	96
HLD	53	0	4	96
TAP	53	192	2
TAP	53	192	5
TAP	53	288	0
TAP	53	288	7
HLD	54	0	5	96
HLD	54	96	4	192
TAP	54	240	6
TAP	54	288	6
HLD	55	0	2	96
HLD	55	96	3	192
TAP	55	240	1
TAP	55	288	1
HLD	56	0	0	96
HLD	56	96	7	96
TAP	56	192	0
TAP	56	288	1
TAP	56	288	6
HLD	57	0	3	96
HLD	57	0	4	96
TAP	57	192	2
TAP	57	192	5
TAP	57	288	0
TAP	57	288	7
TAP	58	0	1
TAP	58	48	2
TAP	58	96	3
HLD	58	144	4	144
TAP	58	240	5
TAP	58	288	5
TAP	59	0	6
TAP	59	48	5
TAP	59	96	4
HLD	59	144	3	144
TAP	59	240	2
TAP	59	288	2
TAP	60	0	0
TAP	60	0	1
TAP	60	96	4
TAP	60	96	5
TAP	60	192	2
TAP	60	240	3
TAP	60	288	4
TAP	60	336	5
HLD	61	0	6	192
TAP	61	192	7
TAP	61	288	2
TAP	61	288	3
HLD	62	0	5	96
TAP	62	96	4
TAP	62	192	3
TAP	62	240	4
TAP	62	288	3
TAP	62	336	4
HLD	63	0	2	96
TAP	63	96	3
TAP	63	192	4
TAP	63	240	3
TAP	63	288	4
HLD	64	0	6	96
TAP	64	96	7
TAP	64	192	0
TAP	64	240	7
TAP	64	288	0
TAP	64	336	7
HLD	65	0	1	96
TAP	65	96	0
TAP	65	192	7
TAP	65	240	0
BRK	65	288	7
TAP	66	0	5
TAP	66	48	5
TAP	66	96	3
TAP	66	144	4
TAP	66	192	3
TAP	66	240	6
TAP	66	288	6
TAP	67	0	2
TAP	67	48	2
TAP	67	96	4
TAP	67	144	3
TAP	67	192	4
TAP	67	240	1
TAP	67	288	1
TAP	68	0	6
TAP	68	48	6
TAP	68	96	3
TAP	68	144	4
TAP	68	192	3
TAP	68	240	7
TAP	68	288	7
TAP	69	0	1
TAP	69	48	1
TAP	69	96	4
TAP	69	144	3
TAP	69	192	4
TAP	69	240	0
TAP	69	288	0
TAP	70	0	6
TAP	70	48	6
TAP	70	96	0
TAP	70	144	7
TAP	70	192	0
TAP	70	240	6
TAP	70	288	6
TAP	71	0	1
TAP	71	48	1
TAP	71	96	7
TAP	71	144	0
TAP	71	192	7
TAP	71	240	1
TAP	71	288	1
TAP	72	0	2
TAP	72	48	2
TAP	72	96	3
TAP	72	144	4
TAP	72	192	3
TAP	72	240	5
TAP	72	288	5
TAP	73	0	2
TAP	73	0	5
TAP	73	96	1
TAP	73	96	6
STR	73	192	0
SCR	73	192	0	96	48	3
STR	73	192	7
SCL	73	192	7	96	48	4

T_REC_TAP	349
T_REC_BRK	9
T_REC_XTP	0
T_REC_HLD	31
T_REC_XHO	0
T_REC_STR	8
T_REC_BST	0
T_REC_XST	0
T_REC_TTP	0
T_REC_THO	0
T_REC_SLD	8
T_REC_ALL	405
T_NUM_TAP	357
T_NUM_BRK	9
T_NUM_HLD	31
T_NUM_SLD	8
T_NUM_ALL	405
T_JUDGE_TAP	366
T_JUDGE_HLD	90
T_JUDGE_SLD	8
T_JUDGE_ALL	464
TTM_EACHPAIRS	69
TTM_SCR_TAP	178500
TTM_SCR_BRK	23400
TTM_SCR_HLD	31000
TTM_SCR_SLD	12000
TTM_SCR_ALL	244900
TTM_SCR_S	236700
TTM_SCR_SS	244000
TTM_RAT_ACV	10036

