VERSION	0.00.00	1.03.00
FES_MODE	0
BPM_DEF	140.000	140.000	140.000	140.000
MET_DEF	4	4
RESOLUTION	384
CLK_DEF	384
COMPATIBLE_CODE	MA2

BPM	0	0	140.000
MET	0	0	4	4

TAP	2	0	3
TAP	2	192	3
TAP	3	0	3
TAP	3	192	3
TAP	4	0	2
TAP	4	192	2
TAP	5	0	2
TAP	5	192	2
TAP	6	0	1
TAP	6	192	1
TAP	7	0	1
TAP	7	192	1
TAP	8	0	0
TAP	8	192	0
TAP	9	0	0
BRK	9	192	0
TAP	10	0	7
TAP	10	96	7
TAP	10	192	7
TAP	11	0	7
TAP	11	96	7
TAP	11	192	7
TAP	12	0	6
TAP	12	96	6
TAP	12	192	6
TAP	13	0	6
TAP	13	96	6
TAP	13	192	6
TAP	14	0	5
TAP	14	96	5
TAP	14	192	5
TAP	15	0	5
TAP	15	96	5
TAP	15	192	5
TAP	16	0	4
TAP	16	96	4
TAP	16	192	4
BRK	17	0	2
BRK	17	0	3
TAP	18	0	1
TAP	18	96	1
TAP	19	0	0
TAP	19	96	0
TAP	20	0	7
TAP	20	96	7
TAP	21	0	6
TAP	21	0	7
TAP	21	192	6
TAP	21	192	7
TAP	22	0	6
TAP	22	96	6
TAP	23	0	7
TAP	23	96	7
TAP	24	0	0
TAP	24	96	0
TAP	25	0	0
TAP	25	0	1
HLD	26	0	0	192
HLD	27	0	2	192
HLD	28	0	4	192
TAP	29	0	6
TAP	29	192	6
TAP	30	0	0
TAP	30	192	0
TAP	31	0	0
TAP	31	192	0
TAP	32	0	7
TAP	32	96	7
TAP	32	192	7
TAP	32	288	7
TAP	33	0	0
TAP	33	96	0
TAP	33	192	0
TAP	33	288	0
STR	34	0	7
SI_	34	0	7	96	480	3
TAP	37	0	1
STR	38	0	0
SI_	38	0	0	96	480	4
TAP	41	0	6
TAP	42	0	0
TAP	42	96	0
TAP	42	192	1
TAP	42	288	1
TAP	43	0	2
TAP	43	96	2
TAP	43	192	3
TAP	43	288	3
TAP	44	0	4
TAP	44	96	4
TAP	44	192	5
TAP	44	288	5
TAP	45	0	6
TAP	45	96	6
TAP	45	192	7
TAP	45	288	7
TAP	46	0	0
TAP	46	0	1
TAP	46	96	0
TAP	46	96	1
TAP	46	192	2
TAP	46	192	3
TAP	46	288	2
TAP	46	288	3
TAP	47	0	4
TAP	47	0	5
TAP	47	96	4
TAP	47	96	5
TAP	47	192	6
TAP	47	192	7
TAP	47	288	6
TAP	47	288	7
TAP	48	0	0
TAP	48	0	1
TAP	48	96	0
TAP	48	96	1
TAP	48	192	2
TAP	48	192	3
TAP	48	288	2
TAP	48	288	3
BRK	49	0	4
BRK	49	0	5
TAP	50	0	6
TAP	50	0	7
TAP	50	96	6
TAP	50	96	7
TAP	50	192	6
TAP	50	240	6
TAP	50	288	6
TAP	51	0	0
TAP	51	0	7
TAP	51	96	0
TAP	51	96	7
TAP	51	192	7
TAP	51	240	7
TAP	51	288	7
TAP	52	0	0
TAP	52	0	1
TAP	52	96	0
TAP	52	96	1
TAP	52	192	0
TAP	52	240	0
TAP	52	288	0
HLD	53	0	1	192
HLD	53	0	6	192
TAP	54	0	2
TAP	54	0	3
TAP	54	96	2
TAP	54	96	3
TAP	54	192	2
TAP	54	240	2
TAP	54	288	2
TAP	55	0	3
TAP	55	0	4
TAP	55	96	3
TAP	55	96	4
TAP	55	192	3
TAP	55	240	3
TAP	55	288	3
TAP	56	0	4
TAP	56	0	5
TAP	56	96	4
TAP	56	96	5
TAP	56	192	4
TAP	56	240	4
TAP	56	288	4
HLD	57	0	2	192
HLD	57	0	5	192
TAP	58	0	6
TAP	58	0	7
TAP	58	96	6
TAP	58	96	7
TAP	58	192	6
TAP	58	240	7
TAP	58	288	6
TAP	59	0	0
TAP	59	0	7
TAP	59	96	0
TAP	59	96	7
TAP	59	192	0
TAP	59	240	7
TAP	59	288	0
TAP	60	0	0
TAP	60	0	1
TAP	60	96	0
TAP	60	96	1
TAP	60	192	1
TAP	60	240	0
TAP	60	288	1
HLD	61	0	1	192
HLD	61	0	6	192
TAP	62	0	2
TAP	62	0	3
TAP	62	96	2
TAP	62	96	3
TAP	62	192	2
TAP	62	240	3
TAP	62	288	2
TAP	63	0	3
TAP	63	0	4
TAP	63	96	3
TAP	63	96	4
TAP	63	192	3
TAP	63	240	4
TAP	63	288	3
TAP	64	0	4
TAP	64	0	5
TAP	64	96	4
TAP	64	96	5
TAP	64	192	5
TAP	64	240	4
TAP	64	288	5
HLD	65	0	2	192
HLD	65	0	5	192
STR	66	0	6
SI_	66	0	6	96	480	3
STR	68	0	1
SI_	68	0	1	96	480	4
STR	70	0	7
SI_	70	0	7	96	480	2
STR	72	0	0
SI_	72	0	0	96	480	5
BRK	74	0	7

T_REC_TAP	194
T_REC_BRK	6
T_REC_XTP	0
T_REC_HLD	11
T_REC_XHO	0
T_REC_STR	6
T_REC_BST	0
T_REC_XST	0
T_REC_TTP	0
T_REC_THO	0
T_REC_SLD	6
T_REC_ALL	223
T_NUM_TAP	200
T_NUM_BRK	6
T_NUM_HLD	11
T_NUM_SLD	6
T_NUM_ALL	223
T_JUDGE_TAP	206
T_JUDGE_HLD	44
T_JUDGE_SLD	6
T_JUDGE_ALL	256
TTM_EACHPAIRS	45
TTM_SCR_TAP	100000
TTM_SCR_BRK	15600
TTM_SCR_HLD	11000
TTM_SCR_SLD	9000
TTM_SCR_ALL	135600
TTM_SCR_S	130950
TTM_SCR_SS	135000
TTM_RAT_ACV	10044

