VERSION	0.00.00	1.03.00
FES_MODE	0
BPM_DEF	190.000	190.000	190.000	190.000
MET_DEF	4	4
RESOLUTION	384
CLK_DEF	384
COMPATIBLE_CODE	MA2

BPM	0	0	190.000
MET	0	0	4	4

TAP	1	0	0
TAP	1	72	1
TAP	1	96	1
TAP	1	144	2
TAP	1	240	3
TAP	1	336	4
TAP	2	48	0
TAP	2	96	1
TAP	2	144	2
TAP	2	192	3
TAP	2	240	4
TAP	2	288	5
TAP	2	336	6
TAP	3	0	7
TAP	3	72	6
TAP	3	96	6
TAP	3	144	5
TAP	3	240	4
TAP	3	336	3
TAP	4	48	7
TAP	4	96	6
TAP	4	144	5
TAP	4	192	4
TAP	4	240	3
TAP	4	288	2
TAP	4	336	1
TAP	5	0	0
TAP	5	0	7
TAP	5	48	1
TAP	5	72	0
TAP	5	96	1
TAP	5	144	2
TAP	5	192	3
TAP	5	216	4
TAP	5	240	3
TAP	5	264	4
TAP	5	288	3
TAP	5	336	6
TAP	6	0	0
TAP	6	0	7
TAP	6	48	6
TAP	6	72	7
TAP	6	96	6
TAP	6	144	5
TAP	6	192	4
TAP	6	216	3
TAP	6	240	4
TAP	6	264	3
TAP	6	288	4
TAP	6	336	1
TAP	7	0	0
TAP	7	24	7
TAP	7	48	0
TAP	7	72	7
TAP	7	96	0
TAP	7	120	7
TAP	7	144	0
TAP	7	168	7
TAP	7	192	0
TAP	7	204	1
TAP	7	216	2
TAP	7	228	3
TAP	7	240	4
TAP	7	252	5
TAP	7	264	6
TAP	7	276	7
TAP	7	288	0
TAP	7	300	1
TAP	7	312	2
TAP	7	324	3
TAP	7	336	4
TAP	7	348	5
TAP	7	360	6
TAP	7	372	7
STR	8	0	0
SI_	8	0	0	96	48	4
TAP	8	0	4
TAP	8	96	0
STR	8	96	7
SI_	8	96	7	96	48	3
TAP	8	192	0
TAP	8	192	7
TAP	8	216	1
TAP	8	240	2
BRK	8	288	1
BRK	8	288	6
TAP	9	0	3
TAP	9	0	4
TAP	9	48	2
TAP	9	72	3
TAP	9	96	2
TAP	9	144	2
TAP	9	144	4
TAP	9	192	2
TAP	9	240	2
TAP	9	240	5
TAP	9	288	2
TAP	9	336	2
TAP	9	336	6
TAP	10	0	0
TAP	10	24	7
TAP	10	48	0
TAP	10	72	7
TAP	10	96	0
TAP	10	144	1
TAP	10	144	6
TAP	10	192	2
TAP	10	240	0
TAP	10	240	6
TAP	10	288	5
TAP	10	336	1
TAP	10	336	7
TAP	11	0	3
TAP	11	0	4
TAP	11	48	5
TAP	11	72	4
TAP	11	96	5
TAP	11	144	3
TAP	11	144	5
TAP	11	192	5
TAP	11	240	2
TAP	11	240	5
TAP	11	288	5
TAP	11	336	1
TAP	11	336	5
TAP	12	0	7
TAP	12	24	0
TAP	12	48	7
TAP	12	72	0
TAP	12	96	7
TAP	12	144	1
TAP	12	144	6
TAP	12	192	2
TAP	12	192	3
TAP	12	240	6
TAP	12	240	7
TAP	12	288	4
TAP	12	288	5
TAP	12	336	0
TAP	12	336	1
TAP	13	0	3
TAP	13	0	4
TAP	13	48	2
TAP	13	72	3
TAP	13	96	2
TAP	13	144	2
TAP	13	144	4
TAP	13	192	2
TAP	13	240	2
TAP	13	240	5
TAP	13	288	2
TAP	13	336	2
TAP	13	336	6
TAP	14	0	3
TAP	14	24	4
TAP	14	48	3
TAP	14	72	4
TAP	14	96	3
TAP	14	144	2
TAP	14	144	5
TAP	14	192	3
TAP	14	240	1
TAP	14	240	7
TAP	14	288	4
TAP	14	336	0
TAP	14	336	6
TAP	15	0	3
TAP	15	48	6
TAP	15	72	7
TAP	15	96	6
TAP	15	144	0
TAP	15	144	5
TAP	15	192	4
TAP	15	240	1
TAP	15	264	0
TAP	15	288	1
TAP	15	336	2
TAP	15	336	7
TAP	16	0	3
TAP	16	24	4
TAP	16	48	2
TAP	16	72	5
TAP	16	96	1
TAP	16	112	2
TAP	16	128	3
TAP	16	144	4
TAP	16	160	5
TAP	16	176	6
TAP	16	192	0
TAP	16	192	7
TAP	16	240	1
TAP	16	240	6
TAP	16	288	2
TAP	16	288	5
BRK	16	336	3
BRK	16	336	4
TAP	17	0	2
TAP	17	48	1
TAP	17	96	0
TAP	17	240	7
TAP	17	336	0
TAP	18	48	7
TAP	18	96	7
TAP	18	288	2
TAP	18	336	1
TAP	19	0	2
TAP	19	96	5
TAP	19	144	6
TAP	19	192	5
TAP	19	288	2
TAP	19	336	5
TAP	20	0	3
TAP	20	48	4
TAP	20	96	1
TAP	20	144	6
TAP	20	192	0
TAP	20	288	4
TAP	20	336	5
TAP	21	0	6
TAP	21	48	7
TAP	21	96	0
TAP	21	144	0
TAP	21	240	7
TAP	21	336	0
TAP	22	48	2
TAP	22	96	3
TAP	22	144	4
TAP	22	192	5
TAP	22	288	3
TAP	22	336	2
TAP	23	0	1
TAP	23	48	0
TAP	23	96	7
TAP	23	144	7
TAP	23	240	5
TAP	23	288	4
TAP	23	336	3
TAP	24	48	2
TAP	24	144	3
TAP	24	240	4
TAP	24	288	5
TAP	24	336	6
TAP	25	0	0
TAP	25	0	7
TAP	25	48	2
TAP	25	72	3
TAP	25	96	2
TAP	25	144	5
TAP	25	168	4
TAP	25	192	5
TAP	25	240	1
TAP	25	264	3
TAP	25	288	2
TAP	25	336	6
TAP	25	360	4
TAP	26	0	5
TAP	26	48	0
TAP	26	72	3
TAP	26	96	2
TAP	26	144	7
TAP	26	168	4
TAP	26	192	5
TAP	26	240	0
TAP	26	264	7
TAP	26	288	0
TAP	26	336	1
TAP	26	336	6
TAP	27	0	1
TAP	27	0	6
TAP	27	48	2
TAP	27	72	3
TAP	27	96	2
TAP	27	144	1
TAP	27	144	4
TAP	27	192	0
TAP	27	240	5
TAP	27	264	4
TAP	27	288	5
TAP	27	336	3
TAP	27	336	6
TAP	28	0	7
BRK	28	48	0
TAP	28	64	1
TAP	28	80	2
TAP	28	96	3
BRK	28	144	7
TAP	28	160	0
TAP	28	176	1
TAP	28	192	2
BRK	28	240	0
TAP	28	256	7
TAP	28	272	6
TAP	28	288	5
BRK	28	336	7
TAP	28	352	6
TAP	28	368	5
TAP	29	0	4
TAP	29	48	1
TAP	29	72	0
TAP	29	96	1
TAP	29	144	6
TAP	29	168	7
TAP	29	192	6
TAP	29	240	3
TAP	29	240	4
TAP	29	336	2
TAP	29	336	6
TAP	30	0	1
TAP	30	0	5
TAP	30	48	0
TAP	30	72	7
TAP	30	96	0
TAP	30	144	1
TAP	30	144	5
TAP	30	192	2
TAP	30	192	6
TAP	30	264	4
TAP	30	264	5
TAP	30	336	2
TAP	30	336	3
TAP	31	0	3
TAP	31	0	4
TAP	31	48	2
TAP	31	72	3
TAP	31	96	2
TAP	31	144	1
TAP	31	144	4
TAP	31	192	1
TAP	31	192	4
TAP	31	240	5
TAP	31	264	4
TAP	31	288	5
TAP	31	336	3
TAP	31	336	6
TAP	32	0	3
TAP	32	0	6
TAP	32	48	2
TAP	32	48	5
TAP	32	96	1
TAP	32	96	4
TAP	32	144	1
TAP	32	144	4
BRK	32	192	0
TAP	32	204	7
TAP	32	216	6
TAP	32	228	5
TAP	32	240	4
BRK	32	288	7
TAP	32	300	0
TAP	32	312	1
TAP	32	324	2
TAP	32	336	3
BRK	33	0	1
BRK	33	0	6
STR	33	192	3
SCL	33	192	3	96	48	0
STR	33	192	4
SCR	33	192	4	96	48	7
BRK	33	288	3
BRK	33	288	4
STR	34	0	1
SI_	34	0	1	96	48	3
TAP	34	0	6
STR	34	96	0
SI_	34	96	0	96	48	4
TAP	34	96	1
TAP	34	192	0
STR	34	192	7
SI_	34	192	7	96	48	3
STR	34	288	6
SI_	34	288	6	96	48	4
TAP	34	288	7
TAP	35	0	6
STR	35	0	7
SI_	35	0	7	96	48	3
STR	35	96	0
SI_	35	96	0	96	48	4
TAP	35	96	7
TAP	35	192	0
TAP	35	192	6
TAP	35	240	5
TAP	35	288	4
TAP	35	336	6
STR	36	0	0
SI_	36	0	0	96	48	4
STR	36	0	7
SI_	36	0	7	96	48	5
STR	36	96	0
SI_	36	96	0	96	48	2
STR	36	96	7
SI_	36	96	7	96	48	3
STR	36	192	0
SI_	36	192	0	96	48	4
STR	36	192	7
SI_	36	192	7	96	48	5
STR	36	288	0
SI_	36	288	0	96	48	2
STR	36	288	7
SI_	36	288	7	96	48	3
TAP	37	0	0
TAP	37	0	7
TAP	37	96	1
TAP	37	96	4
TAP	37	144	1
TAP	37	144	4
TAP	37	192	5
TAP	37	240	1
TAP	37	240	7
TAP	37	288	2
TAP	37	336	0
TAP	37	336	6
TAP	38	0	1
STR	38	0	6
SI_	38	0	6	96	48	4
TAP	38	96	6
STR	38	96	7
SI_	38	96	7	96	48	3
STR	38	192	0
SI_	38	192	0	96	48	4
TAP	38	192	7
TAP	38	288	0
STR	38	288	1
SI_	38	288	1	96	48	3
STR	39	0	0
SI_	39	0	0	96	48	4
TAP	39	0	1
TAP	39	96	0
STR	39	96	7
SI_	39	96	7	96	48	3
TAP	39	192	1
TAP	39	192	7
TAP	39	240	2
TAP	39	288	3
TAP	39	336	1
STR	40	0	0
SI_	40	0	0	96	48	3
STR	40	0	7
SI_	40	0	7	96	48	4
STR	40	96	0
SCL	40	96	0	96	48	5
STR	40	96	7
SCR	40	96	7	96	48	2
STR	40	192	0
SI_	40	192	0	96	48	4
STR	40	192	7
SI_	40	192	7	96	48	3
TAP	40	288	0
TAP	40	288	7
TAP	41	0	1
TAP	41	0	6
TAP	41	96	2
TAP	41	96	7
TAP	41	144	0
TAP	41	144	5
STR	41	192	3
SCL	41	192	3	96	48	0
STR	41	192	4
SCR	41	192	4	96	48	7
BRK	41	288	3
BRK	41	288	4
STR	42	0	1
SI_	42	0	1	96	48	5
TAP	42	0	6
STR	42	96	0
SI_	42	96	0	96	48	4
TAP	42	96	1
TAP	42	192	0
STR	42	192	7
SI_	42	192	7	96	48	3
STR	42	288	6
SI_	42	288	6	96	48	2
TAP	42	288	7
TAP	43	0	6
STR	43	0	7
SI_	43	0	7	96	48	3
STR	43	96	0
SI_	43	96	0	96	48	4
TAP	43	96	7
TAP	43	192	0
TAP	43	192	6
TAP	43	240	5
TAP	43	288	4
TAP	43	336	6
STR	44	0	0
SI_	44	0	0	96	48	2
STR	44	0	7
SI_	44	0	7	96	48	3
STR	44	96	0
SI_	44	96	0	96	48	4
STR	44	96	7
SI_	44	96	7	96	48	5
STR	44	192	0
SI_	44	192	0	96	48	2
STR	44	192	7
SI_	44	192	7	96	48	3
STR	44	288	0
SI_	44	288	0	96	48	4
STR	44	288	7
SI_	44	288	7	96	48	5
TAP	45	0	0
TAP	45	0	7
TAP	45	96	3
TAP	45	96	6
TAP	45	144	3
TAP	45	144	6
TAP	45	192	2
TAP	45	240	0
TAP	45	240	6
TAP	45	288	5
TAP	45	336	1
TAP	45	336	7
TAP	46	0	1
STR	46	0	6
SI_	46	0	6	96	48	2
TAP	46	96	6
STR	46	96	7
SI_	46	96	7	96	48	3
STR	46	192	0
SI_	46	192	0	96	48	4
TAP	46	192	7
TAP	46	288	0
STR	46	288	1
SI_	46	288	1	96	48	5
STR	47	0	0
SI_	47	0	0	96	48	4
TAP	47	0	1
TAP	47	96	0
STR	47	96	7
SI_	47	96	7	96	48	3
TAP	47	192	1
TAP	47	192	7
TAP	47	240	2
TAP	47	288	3
TAP	47	336	1
TAP	48	0	0
TAP	48	24	7
TAP	48	48	1
TAP	48	72	6
TAP	48	96	2
TAP	48	112	3
TAP	48	128	4
TAP	48	144	5
TAP	48	160	6
TAP	48	176	7
TAP	48	192	0
TAP	48	204	1
TAP	48	216	2
TAP	48	228	3
TAP	48	240	4
TAP	48	252	5
TAP	48	264	6
TAP	48	276	7
TAP	48	288	0
TAP	48	296	1
TAP	48	304	2
TAP	48	312	3
TAP	48	320	4
TAP	48	328	5
TAP	48	336	6
TAP	48	344	7
TAP	48	352	0
TAP	48	360	1
TAP	48	368	2
TAP	48	376	3
BRK	49	0	4
TAP	49	96	0
TAP	49	128	3
TAP	49	160	2
TAP	49	192	7
TAP	49	224	4
TAP	49	256	5
BRK	49	288	1
BRK	49	288	6
TAP	50	0	1
TAP	50	96	2
TAP	50	144	3
TAP	50	192	2
TAP	50	288	4
TAP	51	0	5
TAP	51	96	6
TAP	51	144	6
TAP	51	168	5
BRK	51	192	4
BRK	51	288	3
TAP	52	0	6
TAP	52	96	5
TAP	52	144	4
TAP	52	192	5
TAP	52	288	3
TAP	53	0	2
TAP	53	96	1
TAP	53	144	1
TAP	53	168	2
BRK	53	192	3
BRK	53	288	4
TAP	54	0	1
TAP	54	96	3
TAP	54	144	4
TAP	54	192	3
TAP	54	288	5
TAP	55	0	2
TAP	55	96	1
TAP	55	96	6
TAP	55	144	3
TAP	55	168	4
TAP	55	192	2
TAP	55	192	5
BRK	55	288	0
BRK	55	288	7
TAP	56	0	1
TAP	56	48	3
TAP	56	96	4
TAP	56	144	6
BRK	56	192	0
TAP	56	216	1
TAP	56	240	2
TAP	56	264	3
BRK	56	288	0
TAP	56	304	7
TAP	56	320	6
TAP	56	336	5
TAP	56	352	4
TAP	56	368	3
TAP	57	0	0
TAP	57	48	1
TAP	57	96	2
TAP	57	144	3
TAP	57	192	7
TAP	57	240	6
TAP	57	288	5
TAP	57	336	4
TAP	58	0	2
TAP	58	0	3
TAP	58	48	1
TAP	58	72	0
TAP	58	96	1
TAP	58	144	2
STR	58	144	7
SI_	58	144	7	96	48	2
STR	58	240	0
SI_	58	240	0	96	48	5
TAP	58	240	7
TAP	58	336	0
TAP	58	336	5
TAP	59	0	6
TAP	59	48	2
TAP	59	72	3
TAP	59	96	2
TAP	59	144	1
TAP	59	144	4
TAP	59	192	3
TAP	59	192	6
BRK	59	288	0
BRK	59	288	7
TAP	60	0	4
TAP	60	0	5
TAP	60	48	6
TAP	60	72	7
TAP	60	96	6
STR	60	144	0
SI_	60	144	0	96	48	5
TAP	60	144	5
TAP	60	240	0
STR	60	240	7
SI_	60	240	7	96	48	2
TAP	60	336	2
TAP	60	336	7
TAP	61	0	1
TAP	61	48	5
TAP	61	72	4
TAP	61	96	5
TAP	61	120	4
TAP	61	144	5
TAP	61	168	4
TAP	61	192	5
TAP	61	240	3
TAP	61	240	6
BRK	61	288	7
BRK	61	312	7
BRK	61	336	7
BRK	61	360	7
BRK	62	0	7
TAP	62	48	2
TAP	62	72	3
TAP	62	96	2
STR	62	144	1
SI_	62	144	1	96	48	4
TAP	62	144	4
TAP	62	240	1
STR	62	240	6
SI_	62	240	6	96	48	3
TAP	62	336	3
TAP	62	336	6
TAP	63	0	0
TAP	63	48	5
TAP	63	72	4
TAP	63	96	5
TAP	63	144	3
TAP	63	144	6
TAP	63	192	2
TAP	63	216	3
TAP	63	240	2
TAP	63	288	1
TAP	63	288	4
TAP	63	336	2
TAP	63	336	5
TAP	64	0	3
TAP	64	0	6
TAP	64	48	5
TAP	64	72	4
TAP	64	96	5
TAP	64	144	3
STR	64	144	6
SI_	64	144	6	96	48	3
STR	64	240	1
SI_	64	240	1	96	48	4
TAP	64	240	6
TAP	64	336	1
TAP	64	336	4
TAP	65	0	7
TAP	65	48	2
TAP	65	72	3
TAP	65	96	2
TAP	65	120	3
TAP	65	144	2
TAP	65	168	3
STR	65	192	2
SI_	65	192	2	96	48	6
TAP	65	240	1
BRK	65	288	0
TAP	66	0	3
TAP	66	0	5
TAP	66	48	1
TAP	66	72	0
TAP	66	96	1
TAP	66	144	1
TAP	66	144	7
TAP	66	192	1
TAP	66	240	1
TAP	66	240	6
TAP	66	288	1
TAP	66	336	1
BRK	66	336	5
TAP	67	0	2
TAP	67	0	4
TAP	67	48	6
TAP	67	72	7
TAP	67	96	6
TAP	67	144	0
TAP	67	144	6
TAP	67	192	6
TAP	67	240	1
TAP	67	240	6
TAP	67	288	6
BRK	67	336	2
TAP	67	336	6
TAP	68	0	3
TAP	68	0	5
TAP	68	48	1
TAP	68	72	0
TAP	68	96	1
TAP	68	144	2
TAP	68	144	7
TAP	68	192	3
TAP	68	240	6
TAP	68	264	7
TAP	68	288	6
BRK	68	336	0
BRK	68	336	5
TAP	69	0	4
TAP	69	48	0
TAP	69	72	7
TAP	69	96	0
TAP	69	144	1
TAP	69	144	6
TAP	69	192	4
TAP	69	192	5
TAP	69	240	2
TAP	69	240	3
TAP	69	288	0
TAP	69	288	1
BRK	69	336	2
BRK	69	336	7
TAP	70	0	0
TAP	70	48	5
TAP	70	72	4
TAP	70	96	5
BRK	70	144	3
BRK	70	144	6
TAP	70	192	7
TAP	70	240	2
TAP	70	264	3
TAP	70	288	2
BRK	70	336	1
BRK	70	336	4
TAP	71	0	5
TAP	71	48	1
TAP	71	72	0
TAP	71	96	1
BRK	71	144	2
BRK	71	144	7
TAP	71	192	3
TAP	71	240	6
TAP	71	264	7
TAP	71	288	6
BRK	71	336	0
BRK	71	336	5
TAP	72	0	1
BRK	72	48	0
BRK	72	48	2
TAP	72	96	5
BRK	72	144	4
BRK	72	144	6
TAP	72	192	2
BRK	72	240	1
BRK	72	240	3
TAP	72	288	6
BRK	72	336	5
BRK	72	336	7
TAP	73	0	0
TAP	73	24	7
TAP	73	48	1
TAP	73	72	6
TAP	73	96	2
TAP	73	112	3
TAP	73	128	4
TAP	73	144	5
TAP	73	160	6
TAP	73	176	7
TAP	73	192	0
TAP	73	204	1
TAP	73	216	2
TAP	73	228	3
TAP	73	240	4
TAP	73	252	5
TAP	73	264	6
TAP	73	276	7
TAP	73	288	0
TAP	73	296	1
TAP	73	304	2
TAP	73	312	3
TAP	73	320	4
TAP	73	328	5
TAP	73	336	6
TAP	73	344	7
TAP	73	352	0
TAP	73	360	1
TAP	73	368	2
TAP	73	376	3
STR	74	0	4
SCR	74	0	4	96	528	3
STR	75	0	4
SCR	75	0	4	96	144	7
BRK	75	288	1
BRK	75	288	5
TAP	76	0	2
TAP	76	0	6
TAP	76	48	1
TAP	76	72	0
TAP	76	96	1
TAP	76	144	6
TAP	76	168	7
TAP	76	192	6
TAP	76	240	1
TAP	76	264	0
TAP	76	288	2
TAP	76	336	6
TAP	76	360	7
TAP	77	0	5
TAP	77	48	3
TAP	77	72	4
TAP	77	96	3
BRK	77	144	6
TAP	77	160	7
TAP	77	176	0
TAP	77	192	1
TAP	77	288	2
TAP	77	288	3
TAP	77	336	4
TAP	77	336	5
TAP	78	0	6
TAP	78	0	7
BRK	78	48	0
TAP	78	64	1
TAP	78	80	2
TAP	78	96	3
TAP	78	144	4
TAP	78	144	5
TAP	78	192	3
TAP	78	192	6
BRK	78	240	7
TAP	78	256	6
TAP	78	272	5
TAP	78	288	4
TAP	78	336	2
TAP	78	336	3
TAP	79	0	1
TAP	79	0	4
BRK	79	48	0
TAP	79	64	1
TAP	79	80	2
TAP	79	96	3
TAP	79	144	4
TAP	79	144	5
STR	79	192	3
SI_	79	192	3	96	48	0
STR	79	192	4
SI_	79	192	4	96	48	7
BRK	79	288	3
BRK	79	288	4
TAP	80	0	0
TAP	80	0	7
TAP	80	48	1
TAP	80	72	3
TAP	80	96	2
TAP	80	144	6
TAP	80	168	4
TAP	80	192	5
TAP	80	240	0
TAP	80	264	3
TAP	80	288	2
TAP	80	336	7
TAP	80	360	4
TAP	81	0	5
TAP	81	48	2
TAP	81	48	3
TAP	81	96	0
TAP	81	96	1
TAP	81	144	6
TAP	81	144	7
BRK	81	192	0
BRK	81	192	5
TAP	81	288	2
TAP	81	288	7
TAP	81	336	3
TAP	81	360	4
TAP	82	0	3
TAP	82	48	6
TAP	82	48	7
TAP	82	96	0
TAP	82	96	1
BRK	82	144	2
BRK	82	144	7
TAP	82	240	4
TAP	82	264	3
TAP	82	288	4
BRK	82	336	1
BRK	82	336	6
BRK	83	48	0
TAP	83	60	7
TAP	83	72	6
TAP	83	84	5
TAP	83	96	4
BRK	83	144	7
TAP	83	156	0
TAP	83	168	1
TAP	83	180	2
TAP	83	192	3
BRK	83	240	0
TAP	83	252	7
TAP	83	264	6
TAP	83	276	5
TAP	83	288	4
BRK	84	0	1
BRK	84	0	5
TAP	84	48	6
TAP	84	72	7
TAP	84	96	6
TAP	84	144	1
TAP	84	168	0
TAP	84	192	1
TAP	84	240	6
TAP	84	264	7
TAP	84	288	5
TAP	84	336	1
TAP	84	360	0
TAP	85	0	2
TAP	85	48	4
TAP	85	72	3
TAP	85	96	4
BRK	85	144	1
TAP	85	160	0
TAP	85	176	7
TAP	85	192	6
TAP	85	288	4
TAP	85	288	5
TAP	85	336	2
TAP	85	336	3
TAP	86	0	0
TAP	86	0	1
BRK	86	48	7
TAP	86	64	6
TAP	86	80	5
TAP	86	96	4
TAP	86	144	2
TAP	86	144	3
TAP	86	192	1
TAP	86	192	4
BRK	86	240	0
TAP	86	256	1
TAP	86	272	2
TAP	86	288	3
TAP	86	336	4
TAP	86	336	5
TAP	87	0	3
TAP	87	0	6
BRK	87	48	0
BRK	87	48	7
TAP	87	64	1
TAP	87	64	6
TAP	87	80	2
TAP	87	80	5
TAP	87	96	3
TAP	87	96	4
TAP	87	144	2
TAP	87	144	5
STR	87	192	0
SI_	87	192	0	96	48	3
STR	87	192	7
SI_	87	192	7	96	48	4
BRK	87	288	0
BRK	87	288	7
TAP	88	0	2
TAP	88	0	3
BRK	88	48	1
TAP	88	60	0
TAP	88	72	7
TAP	88	84	6
TAP	88	96	5
TAP	88	144	3
TAP	88	144	4
TAP	88	192	4
TAP	88	192	5
BRK	88	240	6
TAP	88	252	7
TAP	88	264	0
TAP	88	276	1
TAP	88	288	2
TAP	88	336	3
TAP	88	336	4
BRK	89	0	1
BRK	89	0	3
BRK	89	48	4
BRK	89	48	6
BRK	89	96	0
BRK	89	96	2
BRK	89	144	5
BRK	89	144	7
BRK	89	192	1
BRK	89	192	6
TAP	89	288	2
TAP	89	288	5
TAP	89	336	1
TAP	89	336	6
TAP	90	0	0
TAP	90	24	7
TAP	90	48	1
TAP	90	72	6
TAP	90	96	0
TAP	90	120	7
TAP	90	144	1
TAP	90	168	6
TAP	90	192	0
TAP	90	204	1
TAP	90	216	2
TAP	90	228	3
TAP	90	240	4
TAP	90	252	5
TAP	90	264	6
TAP	90	276	7
TAP	90	288	0
TAP	90	300	1
TAP	90	312	2
TAP	90	324	3
TAP	90	336	4
TAP	90	348	5
TAP	90	360	6
TAP	90	372	7
BRK	91	0	0
TAP	91	12	1
TAP	91	24	2
TAP	91	36	3
TAP	91	48	4
BRK	91	96	7
TAP	91	108	6
TAP	91	120	5
TAP	91	132	4
TAP	91	144	3
BRK	91	192	0
TAP	91	204	1
TAP	91	216	2
TAP	91	228	3
TAP	91	240	4
TAP	91	252	5
TAP	91	264	6
TAP	91	276	7
TAP	91	288	0
TAP	91	296	1
TAP	91	304	2
TAP	91	312	3
TAP	91	320	4
TAP	91	328	5
TAP	91	336	6
TAP	91	344	7
TAP	91	352	0
TAP	91	360	1
TAP	91	368	2
TAP	91	376	3
STR	92	0	4
SCR	92	0	4	96	1248	3
BRK	95	288	7

T_REC_TAP	876
T_REC_BRK	99
T_REC_XTP	0
T_REC_HLD	0
T_REC_XHO	0
T_REC_STR	68
T_REC_BST	0
T_REC_XST	0
T_REC_TTP	0
T_REC_THO	0
T_REC_SLD	68
T_REC_ALL	1111
T_NUM_TAP	944
T_NUM_BRK	99
T_NUM_HLD	0
T_NUM_SLD	68
T_NUM_ALL	1111
T_JUDGE_TAP	1043
T_JUDGE_HLD	0
T_JUDGE_SLD	68
T_JUDGE_ALL	1111
TTM_EACHPAIRS	211
TTM_SCR_TAP	472000
TTM_SCR_BRK	257400
TTM_SCR_HLD	0
TTM_SCR_SLD	102000
TTM_SCR_ALL	831400
TTM_SCR_S	796900
TTM_SCR_SS	821500
TTM_RAT_ACV	10120

