VERSION	0.00.00	1.03.00
FES_MODE	0
BPM_DEF	190.000	190.000	190.000	190.000
MET_DEF	4	4
RESOLUTION	384
CLK_DEF	384
COMPATIBLE_CODE	MA2

BPM	0	0	190.000
MET	0	0	4	4

TAP	1	0	0
TAP	1	96	1
HLD	1	144	1	528
TAP	1	240	2
TAP	1	336	3
TAP	2	48	4
TAP	2	144	5
TAP	2	192	5
TAP	2	288	6
TAP	3	0	7
TAP	3	96	6
HLD	3	144	6	528
TAP	3	240	5
TAP	3	336	4
TAP	4	48	3
TAP	4	144	2
TAP	4	192	2
TAP	4	288	1
TAP	5	0	0
TAP	5	0	7
TAP	5	96	3
TAP	5	96	4
TAP	5	192	1
TAP	5	240	0
TAP	5	288	1
TAP	6	0	0
TAP	6	0	7
TAP	6	96	3
TAP	6	96	4
TAP	6	192	6
TAP	6	240	7
TAP	6	288	6
TAP	7	0	0
TAP	7	0	7
TAP	7	96	3
TAP	7	96	4
TAP	7	192	0
TAP	7	192	7
TAP	7	240	0
TAP	7	240	7
TAP	7	288	0
TAP	7	288	7
TAP	7	336	0
TAP	7	336	7
STR	8	0	0
SV_	8	0	0	96	96	1
STR	8	0	7
SV_	8	0	7	96	96	6
BRK	8	288	1
BRK	8	288	6
HLD	9	0	1	48
HLD	9	0	7	48
HLD	9	96	3	48
HLD	9	96	4	48
HLD	9	192	0	48
HLD	9	192	6	48
HLD	9	288	3	48
HLD	9	288	4	48
HLD	10	0	1	48
HLD	10	0	7	48
HLD	10	96	3	48
HLD	10	96	4	48
BRK	10	192	0
BRK	10	192	6
TAP	10	240	7
BRK	10	288	0
BRK	10	288	6
HLD	11	0	1	48
HLD	11	0	7	48
HLD	11	96	2	48
HLD	11	96	3	48
HLD	11	192	0	48
HLD	11	192	6	48
HLD	11	288	4	48
HLD	11	288	5	48
HLD	12	0	1	48
HLD	12	0	7	48
HLD	12	96	2	48
HLD	12	96	3	48
BRK	12	192	0
BRK	12	192	6
TAP	12	240	7
BRK	12	288	0
BRK	12	288	6
HLD	13	0	0	48
HLD	13	0	2	48
HLD	13	96	4	48
HLD	13	96	5	48
HLD	13	192	1	48
HLD	13	192	2	48
HLD	13	288	6	48
HLD	13	288	7	48
HLD	14	0	1	48
HLD	14	0	2	48
HLD	14	96	4	48
HLD	14	96	5	48
BRK	14	192	0
BRK	14	192	2
TAP	14	240	1
BRK	14	288	0
BRK	14	288	2
HLD	15	0	5	48
HLD	15	0	7	48
HLD	15	96	2	48
HLD	15	96	3	48
HLD	15	192	5	48
HLD	15	192	6	48
HLD	15	288	0	48
HLD	15	288	1	48
HLD	16	0	5	48
HLD	16	0	6	48
HLD	16	96	2	48
HLD	16	96	3	48
HLD	16	192	5	48
HLD	16	192	7	48
BRK	16	288	2
BRK	16	288	3
TAP	17	0	4
TAP	17	48	3
HLD	17	96	2	480
TAP	17	240	3
TAP	17	336	4
TAP	18	48	5
STR	18	96	5
SI_	18	96	5	96	48	1
TAP	18	288	2
TAP	18	336	3
TAP	19	0	4
TAP	19	96	5
TAP	19	144	4
TAP	19	192	3
TAP	19	288	2
TAP	19	336	3
TAP	20	0	4
TAP	20	48	5
TAP	20	96	4
TAP	20	144	3
BRK	20	192	2
TAP	20	288	5
TAP	20	336	6
TAP	21	0	7
TAP	21	48	0
HLD	21	96	1	480
TAP	21	240	0
TAP	21	336	7
TAP	22	48	6
STR	22	96	6
SI_	22	96	6	96	48	2
TAP	23	0	1
TAP	23	48	0
TAP	23	96	7
TAP	23	144	6
TAP	23	240	7
TAP	23	288	0
HLD	23	336	1	96
HLD	24	48	0	96
HLD	24	144	7	96
BRK	24	240	6
STR	25	0	6
SI_	25	0	6	96	48	3
STR	25	192	7
SI_	25	192	7	96	48	2
STR	26	0	5
SI_	26	0	5	96	48	0
STR	26	192	4
SI_	26	192	4	96	48	1
HLD	27	0	5	72
TAP	27	72	4
TAP	27	96	6
HLD	27	192	2	72
TAP	27	264	3
TAP	27	288	1
TAP	28	0	6
TAP	28	48	7
TAP	28	96	0
TAP	28	144	1
TAP	28	192	2
TAP	28	192	5
BRK	28	288	0
BRK	28	288	7
STR	29	0	1
SI_	29	0	1	96	48	4
STR	29	192	0
SI_	29	192	0	96	48	5
STR	30	0	2
SI_	30	0	2	96	48	7
STR	30	192	3
SI_	30	192	3	96	48	6
TAP	31	0	7
TAP	31	48	7
TAP	31	96	6
TAP	31	144	6
TAP	31	192	0
TAP	31	240	0
TAP	31	288	7
TAP	31	336	7
TAP	32	0	1
TAP	32	48	1
TAP	32	96	6
TAP	32	144	6
TAP	32	192	0
TAP	32	216	7
TAP	32	240	0
TAP	32	264	7
TAP	32	288	0
TAP	32	312	7
TAP	32	336	0
TAP	32	360	7
TAP	33	0	0
BRK	33	288	1
BRK	33	288	6
STR	34	0	3
SI_	34	0	3	96	48	0
STR	34	96	4
SI_	34	96	4	96	48	7
STR	34	192	3
SI_	34	192	3	96	48	1
STR	34	288	4
SI_	34	288	4	96	48	6
STR	35	0	3
SI_	35	0	3	96	48	0
STR	35	96	4
SI_	35	96	4	96	48	7
BRK	35	192	0
BRK	35	240	0
BRK	35	288	7
BRK	35	336	7
STR	36	0	2
SI_	36	0	2	96	48	7
STR	36	96	3
SI_	36	96	3	96	48	6
STR	36	192	2
SI_	36	192	2	96	48	0
STR	36	288	3
SI_	36	288	3	96	48	5
STR	37	0	2
SI_	37	0	2	96	48	7
STR	37	96	3
SI_	37	96	3	96	48	6
BRK	37	192	7
BRK	37	240	7
BRK	37	288	6
BRK	37	336	6
STR	38	0	3
SI_	38	0	3	96	48	0
STR	38	96	4
SI_	38	96	4	96	48	7
STR	38	192	3
SI_	38	192	3	96	48	1
STR	38	288	4
SI_	38	288	4	96	48	6
STR	39	0	3
SI_	39	0	3	96	48	0
STR	39	96	4
SI_	39	96	4	96	48	7
BRK	39	192	0
BRK	39	240	0
BRK	39	288	7
BRK	39	336	7
STR	40	0	4
SI_	40	0	4	96	48	1
STR	40	96	5
SI_	40	96	5	96	48	0
STR	40	192	4
SI_	40	192	4	96	48	2
STR	40	288	5
SI_	40	288	5	96	48	7
STR	41	0	4
SUL	41	0	4	96	192	1
BRK	41	288	0
STR	42	0	3
SI_	42	0	3	96	48	1
STR	42	96	4
SI_	42	96	4	96	48	0
STR	42	192	3
SI_	42	192	3	96	48	7
STR	42	288	4
SI_	42	288	4	96	48	6
STR	43	0	3
SI_	43	0	3	96	48	1
STR	43	96	4
SI_	43	96	4	96	48	0
BRK	43	192	1
BRK	43	240	1
BRK	43	288	0
BRK	43	336	0
STR	44	0	2
SI_	44	0	2	96	48	0
STR	44	96	3
SI_	44	96	3	96	48	7
STR	44	192	2
SI_	44	192	2	96	48	6
STR	44	288	3
SI_	44	288	3	96	48	5
STR	45	0	2
SI_	45	0	2	96	48	0
STR	45	96	3
SI_	45	96	3	96	48	7
BRK	45	192	0
BRK	45	240	0
BRK	45	288	7
BRK	45	336	7
STR	46	0	3
SI_	46	0	3	96	48	7
STR	46	96	4
SI_	46	96	4	96	48	6
STR	46	192	3
SI_	46	192	3	96	48	1
STR	46	288	4
SI_	46	288	4	96	48	0
STR	47	0	3
SI_	47	0	3	96	48	7
STR	47	96	4
SI_	47	96	4	96	48	6
BRK	47	192	7
BRK	47	240	7
BRK	47	288	6
BRK	47	336	6
STR	48	0	4
SI_	48	0	4	96	48	0
STR	48	96	5
SI_	48	96	5	96	48	7
STR	48	192	4
SI_	48	192	4	96	48	2
STR	48	288	5
SI_	48	288	5	96	48	1
STR	49	0	4
SUL	49	0	4	96	192	3
HLD	50	0	4	96
TAP	50	96	3
TAP	50	144	3
HLD	50	192	4	96
HLD	50	288	3	96
STR	51	0	2
SUL	51	0	2	96	192	7
HLD	52	0	0	96
TAP	52	96	7
TAP	52	144	7
HLD	52	192	0	96
HLD	52	288	7	96
STR	53	0	6
SUL	53	0	6	96	192	3
HLD	54	0	4	96
TAP	54	96	3
TAP	54	144	3
HLD	54	192	4	96
HLD	54	288	3	96
STR	55	0	2
SI_	55	0	2	96	96	7
STR	55	192	0
SI_	55	192	0	96	96	5
STR	56	0	6
SUL	56	0	6	96	192	4
HLD	57	0	3	192
HLD	57	0	4	192
BRK	57	288	1
BRK	57	288	6
STR	58	0	1
SI_	58	0	1	96	48	3
STR	58	96	7
SI_	58	96	7	96	48	5
STR	58	192	0
SI_	58	192	0	96	48	4
BRK	58	288	7
TAP	59	0	5
TAP	59	48	4
TAP	59	96	3
TAP	59	144	4
TAP	59	192	5
BRK	59	288	0
BRK	59	288	7
STR	60	0	6
SI_	60	0	6	96	48	4
STR	60	96	0
SI_	60	96	0	96	48	2
STR	60	192	7
SI_	60	192	7	96	48	3
BRK	60	288	0
TAP	61	0	2
TAP	61	48	3
TAP	61	96	4
TAP	61	144	3
TAP	61	192	2
BRK	61	288	0
BRK	61	288	7
STR	62	0	1
SI_	62	0	1	96	48	3
STR	62	96	7
SI_	62	96	7	96	48	5
STR	62	192	0
SI_	62	192	0	96	48	4
BRK	62	288	7
STR	63	0	6
SI_	63	0	6	96	48	4
STR	63	96	0
SI_	63	96	0	96	48	2
STR	63	192	7
SI_	63	192	7	96	48	3
BRK	63	288	0
STR	64	0	1
SI_	64	0	1	96	48	3
BRK	64	96	0
STR	64	192	6
SI_	64	192	6	96	48	4
BRK	64	288	7
TAP	65	0	2
TAP	65	48	3
TAP	65	96	4
TAP	65	144	3
TAP	65	192	2
BRK	65	288	0
BRK	65	288	7
STR	66	0	1
SI_	66	0	1	96	48	4
STR	66	96	0
SI_	66	96	0	96	48	5
STR	66	192	2
SI_	66	192	2	96	48	7
BRK	66	288	3
TAP	67	0	6
TAP	67	48	7
TAP	67	96	0
TAP	67	144	7
TAP	67	192	6
BRK	67	288	3
BRK	67	288	4
STR	68	0	6
SI_	68	0	6	96	48	3
STR	68	96	7
SI_	68	96	7	96	48	2
STR	68	192	5
SI_	68	192	5	96	48	0
BRK	68	288	4
TAP	69	0	1
TAP	69	48	0
TAP	69	96	7
TAP	69	144	0
TAP	69	192	1
BRK	69	288	3
BRK	69	288	4
TAP	70	0	3
TAP	70	48	2
BRK	70	96	1
TAP	70	192	4
TAP	70	240	5
BRK	70	288	6
TAP	71	0	2
TAP	71	48	1
BRK	71	96	0
TAP	71	192	5
TAP	71	240	6
BRK	71	288	7
BRK	72	0	2
TAP	72	48	2
BRK	72	96	5
TAP	72	144	5
BRK	72	192	1
TAP	72	240	1
BRK	72	288	6
TAP	72	336	6
BRK	73	0	0
TAP	73	48	0
BRK	73	96	7
TAP	73	144	7
BRK	73	192	0
TAP	73	216	7
BRK	73	240	0
TAP	73	264	7
BRK	73	288	0
TAP	73	312	7
BRK	73	336	0
TAP	73	360	7
BRK	74	0	0
HLD	75	0	0	192
HLD	75	0	7	192
BRK	75	288	1
BRK	75	288	6
STR	76	0	1
SI_	76	0	1	96	48	4
STR	76	96	0
SI_	76	96	0	96	48	5
STR	76	192	2
SI_	76	192	2	96	48	7
STR	76	288	3
SI_	76	288	3	96	48	6
STR	77	0	1
SI_	77	0	1	96	48	4
STR	77	96	0
SI_	77	96	0	96	48	5
TAP	77	192	2
BRK	77	288	3
HLD	78	0	1	72
TAP	78	72	0
TAP	78	96	2
HLD	78	192	6	72
TAP	78	264	7
TAP	78	288	5
TAP	79	0	1
TAP	79	48	0
TAP	79	96	7
TAP	79	144	6
TAP	79	192	2
TAP	79	192	5
BRK	79	288	0
BRK	79	288	7
STR	80	0	6
SI_	80	0	6	96	48	3
STR	80	96	7
SI_	80	96	7	96	48	2
STR	80	192	5
SI_	80	192	5	96	48	0
STR	80	288	4
SI_	80	288	4	96	48	1
STR	81	0	6
SI_	81	0	6	96	48	3
STR	81	96	7
SI_	81	96	7	96	48	2
TAP	81	192	5
BRK	81	288	4
HLD	82	0	6	72
TAP	82	72	7
TAP	82	96	5
HLD	82	192	1	72
TAP	82	264	0
TAP	82	288	2
BRK	82	336	2
BRK	83	48	6
BRK	83	48	7
BRK	83	144	3
BRK	83	144	4
BRK	83	240	0
BRK	83	240	1
STR	84	0	1
SI_	84	0	1	96	48	4
STR	84	96	0
SI_	84	96	0	96	48	5
STR	84	192	2
SI_	84	192	2	96	48	7
STR	84	288	3
SI_	84	288	3	96	48	6
STR	85	0	4
SI_	85	0	4	96	48	1
STR	85	96	5
SI_	85	96	5	96	48	0
STR	85	192	7
SI_	85	192	7	96	48	2
BRK	85	288	6
HLD	86	0	5	72
TAP	86	72	4
TAP	86	96	6
TAP	86	144	6
HLD	86	192	2	72
TAP	86	264	3
TAP	86	288	1
TAP	86	336	1
TAP	87	0	5
TAP	87	48	7
TAP	87	96	0
TAP	87	144	2
TAP	87	192	3
TAP	87	192	4
BRK	87	288	1
BRK	87	288	6
STR	88	0	6
SI_	88	0	6	96	48	3
STR	88	96	7
SI_	88	96	7	96	48	2
STR	88	192	5
SI_	88	192	5	96	48	0
STR	88	288	4
SI_	88	288	4	96	48	1
STR	89	0	3
SI_	89	0	3	96	48	6
STR	89	96	2
SI_	89	96	2	96	48	7
STR	89	192	0
SI_	89	192	0	96	48	5
BRK	89	288	1
STR	90	0	1
SI_	90	0	1	96	48	4
STR	90	96	7
SI_	90	96	7	96	48	2
STR	90	192	5
SI_	90	192	5	96	48	0
STR	90	288	3
SI_	90	288	3	96	48	6
STR	91	0	1
SI_	91	0	1	96	48	4
STR	91	96	7
SI_	91	96	7	96	48	2
STR	91	192	5
SI_	91	192	5	96	48	0
HLD	91	288	3	1536
BRK	95	288	2

T_REC_TAP	183
T_REC_BRK	100
T_REC_XTP	0
T_REC_HLD	79
T_REC_XHO	0
T_REC_STR	116
T_REC_BST	0
T_REC_XST	0
T_REC_TTP	0
T_REC_THO	0
T_REC_SLD	116
T_REC_ALL	594
T_NUM_TAP	299
T_NUM_BRK	100
T_NUM_HLD	79
T_NUM_SLD	116
T_NUM_ALL	594
T_JUDGE_TAP	399
T_JUDGE_HLD	180
T_JUDGE_SLD	116
T_JUDGE_ALL	695
TTM_EACHPAIRS	63
TTM_SCR_TAP	149500
TTM_SCR_BRK	260000
TTM_SCR_HLD	79000
TTM_SCR_SLD	174000
TTM_SCR_ALL	662500
TTM_SCR_S	632950
TTM_SCR_SS	652500
TTM_RAT_ACV	10153

