VERSION	0.00.00	1.03.00
FES_MODE	0
BPM_DEF	190.000	190.000	190.000	190.000
MET_DEF	4	4
RESOLUTION	384
CLK_DEF	384
COMPATIBLE_CODE	MA2

BPM	0	0	190.000
MET	0	0	4	4

TAP	1	0	0
TAP	1	96	0
TAP	1	192	1
TAP	1	288	1
TAP	2	0	2
TAP	2	96	2
TAP	2	192	3
TAP	2	288	3
TAP	3	0	4
TAP	3	96	4
TAP	3	192	5
TAP	3	288	5
TAP	4	0	6
TAP	4	96	6
TAP	4	192	7
TAP	4	288	7
TAP	5	0	0
TAP	5	0	7
TAP	5	96	6
TAP	5	192	5
TAP	5	288	4
TAP	6	0	3
TAP	6	96	2
TAP	6	192	1
TAP	6	288	0
TAP	7	0	6
TAP	7	0	7
TAP	7	96	0
TAP	7	192	0
TAP	7	192	1
STR	7	288	7
SUR	7	288	7	96	192	0
BRK	8	288	0
BRK	8	288	7
TAP	9	0	1
TAP	9	96	2
TAP	9	192	3
TAP	9	240	3
TAP	9	288	3
TAP	10	0	6
TAP	10	96	5
TAP	10	192	4
TAP	10	240	4
TAP	10	288	4
TAP	11	0	2
TAP	11	96	1
TAP	11	192	0
TAP	11	240	7
TAP	11	288	0
TAP	12	0	6
TAP	12	0	7
TAP	12	96	4
TAP	12	96	5
TAP	12	192	2
TAP	12	192	3
TAP	12	288	0
TAP	12	288	1
TAP	13	0	7
TAP	13	96	6
TAP	13	192	5
TAP	13	240	5
TAP	13	288	5
TAP	14	0	0
TAP	14	96	1
TAP	14	192	2
TAP	14	240	2
TAP	14	288	2
TAP	15	0	5
TAP	15	96	6
TAP	15	192	7
TAP	15	240	7
TAP	15	288	7
TAP	16	0	0
TAP	16	0	1
TAP	16	96	2
TAP	16	96	3
TAP	16	192	4
TAP	16	192	5
TAP	16	288	6
TAP	16	288	7
HLD	17	0	0	192
TAP	17	192	7
HLD	18	0	0	192
TAP	18	192	6
HLD	19	0	0	192
TAP	19	192	5
HLD	20	0	0	192
TAP	20	192	4
HLD	21	0	7	192
TAP	21	192	0
HLD	22	0	7	192
TAP	22	192	1
HLD	23	0	7	192
TAP	23	192	2
HLD	24	0	7	192
TAP	24	192	3
TAP	24	288	0
TAP	24	288	4
TAP	25	0	1
TAP	25	96	1
TAP	25	192	2
TAP	25	288	2
TAP	26	0	3
TAP	26	96	3
TAP	26	192	4
TAP	26	192	6
TAP	27	0	1
TAP	27	0	3
TAP	27	96	5
TAP	27	192	4
TAP	27	192	6
TAP	27	288	2
TAP	28	0	3
TAP	28	0	4
TAP	28	96	2
TAP	28	96	5
TAP	28	192	0
TAP	28	192	7
TAP	29	0	6
TAP	29	96	6
TAP	29	192	5
TAP	29	288	5
TAP	30	0	4
TAP	30	96	4
TAP	30	192	1
TAP	30	192	3
TAP	31	0	4
TAP	31	0	6
TAP	31	96	2
TAP	31	192	1
TAP	31	192	3
TAP	31	288	5
TAP	32	0	3
TAP	32	0	4
TAP	32	96	2
TAP	32	96	5
TAP	32	192	1
TAP	32	192	6
BRK	32	288	0
BRK	32	288	7
STR	33	192	0
SI_	33	192	0	96	48	4
TAP	34	0	3
TAP	34	0	5
TAP	34	96	3
TAP	34	96	5
TAP	34	192	0
TAP	34	192	7
TAP	34	288	0
TAP	34	288	7
TAP	35	0	2
TAP	35	0	4
TAP	35	96	2
TAP	35	96	4
TAP	35	192	0
TAP	35	192	7
TAP	35	288	0
TAP	35	288	7
TAP	36	0	4
TAP	36	0	5
TAP	36	96	4
TAP	36	96	5
TAP	36	192	0
TAP	36	192	7
TAP	36	288	0
TAP	36	288	7
TAP	37	0	2
TAP	37	0	3
TAP	37	96	2
TAP	37	96	3
TAP	37	192	4
TAP	37	240	3
TAP	37	288	4
TAP	38	0	2
TAP	38	0	3
TAP	38	96	2
TAP	38	96	3
TAP	38	192	0
TAP	38	192	7
TAP	38	288	0
TAP	38	288	7
TAP	39	0	4
TAP	39	0	5
TAP	39	96	4
TAP	39	96	5
TAP	39	192	0
TAP	39	192	7
TAP	39	288	0
TAP	39	288	7
TAP	40	0	3
TAP	40	0	4
TAP	40	96	3
TAP	40	96	4
TAP	40	192	0
TAP	40	192	7
STR	40	288	0
SUL	40	288	0	96	192	7
TAP	40	288	7
BRK	41	288	0
BRK	41	288	7
TAP	42	0	4
TAP	42	0	5
TAP	42	96	4
TAP	42	96	5
TAP	42	192	1
TAP	42	192	7
TAP	42	288	1
TAP	42	288	7
TAP	43	0	2
TAP	43	0	3
TAP	43	96	2
TAP	43	96	3
TAP	43	192	0
TAP	43	192	6
TAP	43	288	0
TAP	43	288	6
TAP	44	0	3
TAP	44	0	4
TAP	44	96	3
TAP	44	96	4
TAP	44	192	0
TAP	44	192	7
TAP	44	288	0
TAP	44	288	7
TAP	45	0	3
TAP	45	0	4
TAP	45	96	1
TAP	45	96	6
TAP	45	192	0
TAP	45	240	7
TAP	45	288	0
TAP	46	0	2
TAP	46	0	3
TAP	46	96	2
TAP	46	96	3
TAP	46	192	6
TAP	46	192	7
TAP	46	288	6
TAP	46	288	7
TAP	47	0	4
TAP	47	0	5
TAP	47	96	4
TAP	47	96	5
TAP	47	192	0
TAP	47	192	1
TAP	47	288	0
TAP	47	288	1
TAP	48	0	2
TAP	48	0	3
TAP	48	96	4
TAP	48	96	5
TAP	48	192	6
TAP	48	192	7
TAP	48	288	0
STR	48	288	1
SCR	48	288	1	96	288	6
HLD	50	0	6	192
TAP	50	192	7
TAP	51	0	5
TAP	51	96	4
TAP	51	192	2
TAP	51	192	3
HLD	52	0	1	192
TAP	52	192	0
TAP	53	0	2
TAP	53	96	3
TAP	53	192	4
TAP	53	192	5
TAP	53	288	2
TAP	53	288	3
HLD	54	0	4	192
TAP	54	192	3
TAP	55	0	5
TAP	55	96	4
TAP	55	192	3
STR	55	288	2
SCL	55	288	2	96	288	5
BRK	57	0	3
BRK	57	0	4
STR	57	192	3
SI_	57	192	3	96	48	0
STR	57	192	4
SI_	57	192	4	96	48	7
TAP	58	0	1
TAP	58	96	1
TAP	58	192	2
TAP	58	288	2
HLD	59	0	3	192
TAP	59	192	4
TAP	59	288	0
TAP	59	288	7
TAP	60	0	6
TAP	60	96	6
TAP	60	192	5
TAP	60	288	5
HLD	61	0	4	192
TAP	61	192	3
TAP	61	288	0
TAP	61	288	7
HLD	62	0	1	192
TAP	62	192	0
TAP	62	288	4
TAP	62	288	5
HLD	63	0	6	192
TAP	63	192	7
TAP	63	288	2
TAP	63	288	3
TAP	64	0	4
TAP	64	0	5
TAP	64	96	1
TAP	64	96	7
TAP	64	192	2
TAP	64	192	3
TAP	64	288	0
TAP	64	288	6
TAP	65	0	1
TAP	65	0	7
TAP	65	96	2
TAP	65	96	6
TAP	65	192	3
TAP	65	192	5
BRK	65	288	0
TAP	65	288	4
HLD	66	0	1	192
HLD	66	0	3	192
TAP	66	288	2
TAP	66	288	5
HLD	67	0	4	192
HLD	67	0	6	192
TAP	67	288	2
TAP	67	288	5
HLD	68	0	3	192
HLD	68	0	4	192
TAP	68	288	3
TAP	68	288	4
HLD	69	0	2	96
TAP	69	96	3
HLD	69	192	5	96
TAP	69	288	4
TAP	70	0	3
TAP	70	96	2
TAP	70	192	1
TAP	70	288	0
TAP	70	288	5
TAP	71	0	4
TAP	71	96	5
TAP	71	192	6
TAP	71	288	2
TAP	71	288	7
TAP	72	0	3
TAP	72	96	2
TAP	72	96	4
TAP	72	192	1
TAP	72	288	0
TAP	72	288	2
TAP	73	0	7
TAP	73	96	0
TAP	73	96	6
TAP	73	192	5
TAP	73	288	4
TAP	73	288	6
STR	74	0	3
SCL	74	0	3	96	480	4
BRK	75	288	1
BRK	75	288	6
TAP	76	0	0
TAP	76	0	1
TAP	76	96	0
TAP	76	96	1
TAP	76	192	2
TAP	76	192	7
TAP	76	288	2
TAP	76	288	7
TAP	77	0	3
TAP	77	0	6
TAP	77	96	3
TAP	77	96	6
TAP	77	192	4
TAP	77	192	5
TAP	77	288	6
TAP	77	336	6
TAP	78	0	6
TAP	78	96	1
TAP	78	144	1
TAP	78	192	1
TAP	78	288	7
TAP	78	336	0
TAP	79	0	1
TAP	79	0	6
TAP	79	96	2
TAP	79	96	5
TAP	79	192	3
TAP	79	192	4
BRK	79	288	1
BRK	79	288	6
TAP	80	0	6
TAP	80	0	7
TAP	80	96	6
TAP	80	96	7
TAP	80	192	0
TAP	80	192	5
TAP	80	288	0
TAP	80	288	5
TAP	81	0	1
TAP	81	0	4
TAP	81	96	1
TAP	81	96	4
TAP	81	192	2
TAP	81	192	3
TAP	81	288	4
TAP	81	336	3
TAP	82	0	4
TAP	82	96	5
TAP	82	192	6
TAP	82	288	7
TAP	83	0	0
TAP	83	0	6
TAP	83	96	1
TAP	83	96	5
TAP	83	192	2
TAP	83	192	4
TAP	83	288	3
BRK	83	288	7
TAP	84	0	4
TAP	84	0	5
TAP	84	96	4
TAP	84	96	5
TAP	84	192	0
TAP	84	192	1
TAP	84	288	0
TAP	84	288	1
TAP	85	0	2
TAP	85	0	3
TAP	85	96	4
TAP	85	96	5
TAP	85	192	1
TAP	85	192	7
TAP	85	288	0
TAP	85	336	0
TAP	86	0	0
TAP	86	96	7
TAP	86	144	7
TAP	86	192	7
TAP	86	288	0
TAP	86	336	7
TAP	87	0	1
TAP	87	0	6
TAP	87	96	2
TAP	87	96	5
TAP	87	192	3
TAP	87	192	4
BRK	87	288	1
BRK	87	288	6
TAP	88	0	2
TAP	88	0	3
TAP	88	96	2
TAP	88	96	3
TAP	88	192	6
TAP	88	192	7
TAP	88	288	6
TAP	88	288	7
TAP	89	0	4
TAP	89	0	5
TAP	89	96	2
TAP	89	96	3
TAP	89	192	0
TAP	89	192	6
TAP	89	288	7
TAP	89	336	7
TAP	90	0	7
TAP	90	96	0
TAP	90	96	6
TAP	90	192	1
TAP	90	192	5
TAP	90	288	2
TAP	90	288	4
TAP	91	0	3
TAP	91	0	7
TAP	91	96	2
TAP	91	96	6
TAP	91	192	1
TAP	91	192	5
TAP	91	288	0
TAP	91	288	4
STR	92	0	7
SCL	92	0	7	96	1344	0

T_REC_TAP	429
T_REC_BRK	16
T_REC_XTP	0
T_REC_HLD	23
T_REC_XHO	0
T_REC_STR	9
T_REC_BST	0
T_REC_XST	0
T_REC_TTP	0
T_REC_THO	0
T_REC_SLD	9
T_REC_ALL	486
T_NUM_TAP	438
T_NUM_BRK	16
T_NUM_HLD	23
T_NUM_SLD	9
T_NUM_ALL	486
T_JUDGE_TAP	454
T_JUDGE_HLD	88
T_JUDGE_SLD	9
T_JUDGE_ALL	551
TTM_EACHPAIRS	156
TTM_SCR_TAP	219000
TTM_SCR_BRK	41600
TTM_SCR_HLD	23000
TTM_SCR_SLD	13500
TTM_SCR_ALL	297100
TTM_SCR_S	286650
TTM_SCR_SS	295500
TTM_RAT_ACV	10054

