VERSION	0.00.00	1.03.00
FES_MODE	0
BPM_DEF	190.000	190.000	190.000	190.000
MET_DEF	4	4
RESOLUTION	384
CLK_DEF	384
COMPATIBLE_CODE	MA2

BPM	0	0	190.000
MET	0	0	4	4

TAP	1	0	3
TAP	2	0	3
TAP	3	0	4
TAP	4	0	4
TAP	5	0	3
TAP	5	192	3
TAP	6	0	3
TAP	6	192	3
TAP	7	0	4
TAP	7	192	4
TAP	8	0	4
BRK	8	192	3
BRK	8	192	4
TAP	9	0	2
TAP	9	96	2
TAP	9	192	2
TAP	10	0	1
TAP	10	96	1
TAP	10	192	1
TAP	11	0	0
TAP	11	96	0
TAP	11	192	0
TAP	12	0	7
TAP	12	96	7
TAP	12	192	7
TAP	13	0	6
TAP	13	96	6
TAP	13	192	6
TAP	14	0	5
TAP	14	96	5
TAP	14	192	5
TAP	15	0	4
TAP	15	96	4
TAP	15	192	4
TAP	16	0	3
TAP	16	96	3
BRK	16	192	3
HLD	17	0	2	384
HLD	19	0	4	384
HLD	21	0	6	384
HLD	23	0	0	384
TAP	25	0	6
TAP	25	0	7
TAP	25	192	6
TAP	25	192	7
TAP	26	0	6
TAP	26	0	7
TAP	26	192	6
TAP	26	192	7
TAP	27	0	4
TAP	27	0	5
TAP	27	192	4
TAP	27	192	5
TAP	28	0	4
TAP	28	0	5
TAP	28	192	4
TAP	28	192	5
TAP	29	0	2
TAP	29	0	3
TAP	29	192	2
TAP	29	192	3
TAP	30	0	2
TAP	30	0	3
TAP	30	192	2
TAP	30	192	3
TAP	31	0	0
TAP	31	0	1
TAP	31	192	0
TAP	31	192	1
TAP	32	0	0
TAP	32	0	1
TAP	32	192	0
TAP	32	192	1
HLD	33	0	0	192
HLD	33	0	7	192
TAP	34	0	0
TAP	34	96	0
TAP	34	192	0
TAP	34	288	0
TAP	35	0	0
TAP	35	96	0
TAP	35	192	0
TAP	36	0	7
TAP	36	96	7
TAP	36	192	7
TAP	36	288	7
TAP	37	0	7
TAP	37	96	7
TAP	37	192	7
TAP	38	0	0
TAP	38	96	0
TAP	38	192	0
TAP	38	288	0
TAP	39	0	0
TAP	39	96	0
TAP	39	192	0
TAP	40	0	7
TAP	40	96	7
TAP	40	192	7
TAP	40	288	7
TAP	41	0	7
BRK	41	192	0
BRK	41	192	7
TAP	42	0	0
TAP	42	96	0
TAP	42	192	1
TAP	42	288	1
TAP	43	0	2
TAP	43	96	2
TAP	43	192	3
TAP	44	0	4
TAP	44	96	4
TAP	44	192	5
TAP	44	288	5
TAP	45	0	6
TAP	45	96	6
TAP	45	192	7
TAP	46	0	7
TAP	46	96	7
TAP	46	192	6
TAP	46	288	6
TAP	47	0	5
TAP	47	96	5
TAP	47	192	4
TAP	48	0	3
TAP	48	96	3
TAP	48	192	2
TAP	48	288	2
TAP	49	0	1
BRK	49	192	0
BRK	49	192	7
STR	50	0	0
SI_	50	0	0	96	288	3
STR	52	0	7
SI_	52	0	7	96	288	4
STR	54	0	0
SI_	54	0	0	96	288	3
STR	56	0	7
SI_	56	0	7	96	288	4
HLD	58	0	0	192
TAP	59	0	0
TAP	59	192	0
TAP	59	192	1
HLD	60	0	7	192
TAP	61	0	7
TAP	61	192	6
TAP	61	192	7
TAP	62	0	0
TAP	62	0	7
TAP	62	192	1
TAP	63	0	0
TAP	63	0	7
TAP	63	192	6
TAP	64	0	0
TAP	64	0	7
TAP	64	192	0
TAP	64	192	7
TAP	65	0	0
TAP	65	96	7
TAP	65	192	1
TAP	65	192	6
TAP	66	0	2
TAP	66	96	3
TAP	66	192	2
TAP	66	288	3
TAP	67	0	2
TAP	67	96	3
TAP	67	192	2
TAP	67	192	3
TAP	68	0	5
TAP	68	96	4
TAP	68	192	5
TAP	68	288	4
TAP	69	0	5
TAP	69	96	4
TAP	69	192	4
TAP	69	192	5
TAP	70	0	2
TAP	70	0	3
TAP	70	192	4
TAP	70	192	5
TAP	71	0	2
TAP	71	0	3
TAP	71	192	4
TAP	71	192	5
TAP	72	0	2
TAP	72	0	3
TAP	72	192	4
TAP	72	192	5
TAP	73	0	2
TAP	73	96	3
TAP	73	192	4
TAP	73	288	5
BRK	74	0	6
TAP	76	0	0
TAP	76	96	0
TAP	76	192	7
TAP	76	288	7
TAP	77	0	6
TAP	77	96	6
TAP	77	192	4
TAP	77	192	5
TAP	78	0	4
TAP	78	96	4
TAP	78	192	3
TAP	78	288	3
TAP	79	0	2
TAP	79	96	2
TAP	79	192	0
TAP	79	192	1
TAP	80	0	7
TAP	80	96	7
TAP	80	192	0
TAP	80	288	0
TAP	81	0	1
TAP	81	96	1
TAP	81	192	2
TAP	81	192	3
TAP	82	0	3
TAP	82	96	3
TAP	82	192	4
TAP	82	288	4
TAP	83	0	5
TAP	83	96	5
TAP	83	192	6
TAP	83	192	7
TAP	84	0	5
TAP	84	96	5
TAP	84	192	4
TAP	84	288	4
TAP	85	0	3
TAP	85	96	3
TAP	85	192	2
TAP	85	192	4
TAP	86	0	2
TAP	86	96	2
TAP	86	192	3
TAP	86	288	3
TAP	87	0	4
TAP	87	96	4
TAP	87	192	3
TAP	87	192	5
TAP	88	0	5
TAP	88	96	5
TAP	88	192	6
TAP	88	288	6
TAP	89	0	7
TAP	89	96	7
TAP	89	192	0
TAP	89	192	6
TAP	90	0	2
TAP	90	96	2
TAP	90	192	1
TAP	90	288	1
TAP	91	0	0
TAP	91	96	0
TAP	91	192	1
TAP	91	192	7
BRK	92	0	0

T_REC_TAP	234
T_REC_BRK	9
T_REC_XTP	0
T_REC_HLD	8
T_REC_XHO	0
T_REC_STR	4
T_REC_BST	0
T_REC_XST	0
T_REC_TTP	0
T_REC_THO	0
T_REC_SLD	4
T_REC_ALL	259
T_NUM_TAP	238
T_NUM_BRK	9
T_NUM_HLD	8
T_NUM_SLD	4
T_NUM_ALL	259
T_JUDGE_TAP	247
T_JUDGE_HLD	48
T_JUDGE_SLD	4
T_JUDGE_ALL	299
TTM_EACHPAIRS	43
TTM_SCR_TAP	119000
TTM_SCR_BRK	23400
TTM_SCR_HLD	8000
TTM_SCR_SLD	6000
TTM_SCR_ALL	156400
TTM_SCR_S	150850
TTM_SCR_SS	155500
TTM_RAT_ACV	10057

