VERSION	0.00.00	1.03.00
FES_MODE	0
BPM_DEF	130.000	130.000	130.000	130.000
MET_DEF	4	4
RESOLUTION	384
CLK_DEF	384
COMPATIBLE_CODE	MA2

BPM	0	0	130.000
MET	0	0	4	4

TAP	1	48	2
TAP	1	72	3
TAP	1	96	4
TAP	1	120	5
TAP	1	192	3
TAP	1	192	4
TAP	1	264	5
TAP	1	288	4
TAP	1	312	3
TAP	1	360	0
TAP	1	360	7
TAP	2	48	2
TAP	2	72	1
TAP	2	96	2
TAP	2	120	0
TAP	2	144	2
TAP	2	168	7
TAP	2	192	2
TAP	2	216	6
TAP	2	240	2
TAP	2	264	5
TAP	2	288	2
TAP	2	312	4
TAP	2	336	2
HLD	2	360	3	120
STR	3	96	4
SI_	3	96	4	96	48	1
TAP	3	192	6
TAP	3	288	2
TAP	3	312	5
TAP	3	336	3
TAP	3	360	4
HLD	4	0	1	72
TAP	4	72	3
HLD	4	144	6	48
TAP	4	192	4
STR	4	288	2
SI_	4	288	2	96	48	7
STR	4	288	5
SI_	4	288	5	96	48	0
TAP	5	96	1
TAP	5	96	6
TAP	5	192	2
TAP	5	216	3
TAP	5	240	2
TAP	5	288	5
TAP	5	312	4
TAP	5	336	5
TAP	6	0	0
TAP	6	0	7
TAP	6	48	5
TAP	6	72	6
TAP	6	96	5
TAP	6	120	7
TAP	6	144	5
TAP	6	168	0
TAP	6	192	5
TAP	6	216	1
TAP	6	240	5
TAP	6	264	2
TAP	6	288	5
TAP	6	312	3
TAP	6	336	5
HLD	6	360	4	120
STR	7	96	3
SI_	7	96	3	96	48	6
TAP	7	192	1
TAP	7	288	5
TAP	7	312	2
TAP	7	336	4
TAP	7	360	3
HLD	8	0	6	72
TAP	8	72	5
HLD	8	144	1	48
TAP	8	192	2
STR	8	288	3
SI_	8	288	3	96	48	6
STR	8	288	4
SI_	8	288	4	96	48	1
TAP	9	96	0
TAP	9	96	7
TAP	9	192	2
TAP	9	192	5
TAP	9	264	3
TAP	9	288	4
TAP	9	312	3
TAP	9	336	4
HLD	9	360	2	72
TAP	10	48	3
TAP	10	96	1
TAP	10	96	4
HLD	10	168	5	72
TAP	10	240	4
TAP	10	288	3
TAP	10	288	6
HLD	10	360	1	72
TAP	11	48	0
TAP	11	96	2
TAP	11	96	7
HLD	11	168	6	72
TAP	11	240	7
TAP	11	288	0
TAP	11	288	5
HLD	11	360	1	72
TAP	12	48	2
TAP	12	96	0
TAP	12	96	3
HLD	12	168	6	72
TAP	12	240	5
TAP	12	288	4
TAP	12	288	7
HLD	12	360	0	72
TAP	13	48	7
TAP	13	96	1
TAP	13	96	6
TAP	13	168	3
TAP	13	168	4
TAP	13	264	4
TAP	13	288	3
TAP	13	312	4
TAP	13	336	3
HLD	13	360	5	72
TAP	14	48	4
TAP	14	96	3
TAP	14	96	6
HLD	14	168	2	72
TAP	14	240	3
TAP	14	288	1
TAP	14	288	4
HLD	14	360	6	72
TAP	15	48	7
TAP	15	96	0
TAP	15	96	5
HLD	15	168	1	72
TAP	15	240	0
TAP	15	288	2
TAP	15	288	7
HLD	15	360	6	72
TAP	16	48	5
TAP	16	96	4
TAP	16	96	7
HLD	16	168	1	72
TAP	16	240	2
TAP	16	288	0
TAP	16	288	3
HLD	16	360	4	72
TAP	17	48	3
TAP	17	96	1
TAP	17	96	6
STR	17	168	7
SI_	17	168	7	96	48	3
BRK	17	264	7
BRK	17	312	0
TAP	18	48	2
TAP	18	96	1
TAP	18	96	3
TAP	18	144	4
TAP	18	168	3
TAP	18	240	5
TAP	18	288	4
TAP	18	288	6
TAP	18	336	3
TAP	18	360	4
TAP	19	48	1
TAP	19	48	6
TAP	19	96	7
TAP	19	120	0
TAP	19	168	1
TAP	19	168	6
TAP	19	216	1
TAP	19	216	6
HLD	19	288	2	48
HLD	19	336	5	48
HLD	20	0	3	96
HLD	20	96	4	72
TAP	20	168	0
TAP	20	240	1
TAP	20	240	6
TAP	20	312	2
TAP	20	336	3
TAP	20	360	2
TAP	21	48	1
TAP	21	48	4
TAP	21	120	5
TAP	21	144	4
TAP	21	168	5
TAP	21	240	3
TAP	21	240	6
TAP	21	312	0
TAP	21	312	1
TAP	21	360	6
TAP	21	360	7
TAP	22	48	5
TAP	22	96	4
TAP	22	96	6
TAP	22	144	3
TAP	22	168	4
TAP	22	240	2
TAP	22	288	1
TAP	22	288	3
TAP	22	336	4
TAP	22	360	3
TAP	23	48	1
TAP	23	48	6
TAP	23	96	0
TAP	23	120	7
TAP	23	168	1
TAP	23	168	6
TAP	23	216	1
TAP	23	216	6
HLD	23	288	5	48
HLD	23	336	2	48
HLD	24	0	7	72
TAP	24	72	0
TAP	24	144	5
TAP	24	168	4
TAP	24	192	5
TAP	24	264	3
TAP	24	264	6
TAP	24	336	2
TAP	24	360	3
TAP	25	0	2
TAP	25	72	1
TAP	25	72	4
TAP	25	144	0
TAP	25	168	7
TAP	25	192	0
TAP	25	264	1
TAP	25	264	6
TAP	25	336	3
TAP	25	360	4
STR	26	0	3
SUR	26	0	3	96	96	4
STR	26	192	6
SUL	26	192	6	96	96	5
STR	27	0	1
SUR	27	0	1	96	96	2
STR	27	192	7
SUR	27	192	7	96	96	0
TAP	28	0	1
TAP	28	96	3
HLD	28	120	4	240
TAP	28	168	5
TAP	28	216	5
TAP	28	264	5
TAP	28	312	5
STR	28	360	5
SUR	28	360	5	96	48	2
TAP	29	120	7
TAP	29	144	6
STR	29	168	5
SCR	29	168	5	96	72	2
STR	30	0	1
SSR	30	0	1	96	96	5
STR	30	192	6
SSL	30	192	6	96	96	2
TAP	31	0	1
TAP	31	96	4
HLD	31	120	3	240
TAP	31	168	2
TAP	31	216	2
TAP	31	264	2
TAP	31	312	2
STR	31	360	2
SUL	31	360	2	96	48	5
TAP	32	96	0
TAP	32	192	1
TAP	32	192	6
TAP	32	288	2
TAP	32	312	5
TAP	32	336	3
HLD	32	360	4	120
TAP	33	96	0
TAP	33	120	3
TAP	33	120	7
TAP	33	192	3
TAP	33	192	7
TAP	33	216	0
TAP	33	216	4
BRK	33	288	2
BRK	33	288	5
BRK	33	336	0
BRK	33	336	7
TAP	34	0	3
HLD	34	24	3	144
TAP	34	72	2
TAP	34	120	1
TAP	34	168	0
TAP	34	240	2
TAP	34	240	7
TAP	34	288	1
TAP	34	288	6
TAP	34	336	0
TAP	34	336	5
TAP	35	0	4
HLD	35	24	4	144
TAP	35	72	5
TAP	35	120	6
TAP	35	168	7
TAP	35	240	0
TAP	35	240	5
TAP	35	288	1
TAP	35	288	6
TAP	35	336	2
TAP	35	336	7
STR	36	48	3
SCL	36	48	3	96	48	0
STR	36	96	0
SCL	36	96	0	96	48	5
STR	36	240	4
SCR	36	240	4	96	48	7
STR	36	288	7
SCR	36	288	7	96	48	2
STR	37	48	3
SCL	37	48	3	96	48	0
STR	37	96	0
SCL	37	96	0	96	48	5
TAP	37	240	4
TAP	37	288	3
TAP	37	288	4
TAP	38	0	4
HLD	38	24	4	144
TAP	38	72	5
TAP	38	120	6
TAP	38	168	7
TAP	38	240	0
TAP	38	240	5
TAP	38	288	1
TAP	38	288	6
TAP	38	336	2
TAP	38	336	7
TAP	39	0	3
HLD	39	24	3	144
TAP	39	72	2
TAP	39	120	1
TAP	39	168	0
TAP	39	240	2
TAP	39	240	7
TAP	39	288	1
TAP	39	288	6
TAP	39	336	0
TAP	39	336	5
STR	40	48	4
SCR	40	48	4	96	48	7
STR	40	96	7
SCR	40	96	7	96	48	2
STR	40	240	3
SCL	40	240	3	96	48	0
STR	40	288	0
SCL	40	288	0	96	48	5
STR	41	48	4
SCR	41	48	4	96	48	7
STR	41	96	7
SCR	41	96	7	96	48	2
TAP	41	240	3
TAP	41	288	3
TAP	41	288	4
BRK	42	0	1
BRK	42	0	6
TAP	42	96	0
TAP	42	120	7
TAP	42	168	5
TAP	42	168	6
TAP	42	216	5
TAP	42	216	7
TAP	42	264	0
STR	42	264	5
SCR	42	264	5	96	96	2
TAP	42	312	1
TAP	42	312	5
TAP	42	360	2
TAP	42	360	5
TAP	43	96	3
TAP	43	144	4
TAP	43	192	2
TAP	43	192	5
HLD	43	264	0	168
HLD	43	336	7	96
STR	44	96	0
SCR	44	96	0	96	48	3
STR	44	96	7
SCL	44	96	7	96	48	4
TAP	44	288	3
TAP	44	288	4
TAP	44	336	1
TAP	44	336	6
TAP	45	48	1
TAP	45	96	0
TAP	45	144	2
TAP	45	144	7
TAP	45	240	6
TAP	45	288	0
TAP	45	288	5
BRK	46	0	1
BRK	46	0	6
TAP	46	96	7
TAP	46	120	0
TAP	46	168	1
TAP	46	168	2
TAP	46	216	0
TAP	46	216	2
STR	46	264	2
SCL	46	264	2	96	96	5
TAP	46	264	7
TAP	46	312	2
TAP	46	312	6
TAP	46	360	2
TAP	46	360	5
TAP	47	96	4
TAP	47	144	3
TAP	47	192	2
TAP	47	192	5
HLD	47	264	7	168
HLD	47	336	0	96
STR	48	96	0
SUL	48	96	0	96	48	3
STR	48	96	7
SUR	48	96	7	96	48	4
TAP	48	288	3
TAP	48	288	4
TAP	48	336	1
TAP	48	336	6
TAP	49	48	6
TAP	49	96	7
TAP	49	144	0
TAP	49	144	5
TAP	49	240	1
TAP	49	288	2
TAP	49	288	7
STR	50	0	6
SUL	50	0	6	96	96	3
STR	50	192	1
SUR	50	192	1	96	96	4
TAP	51	0	5
TAP	51	96	3
TAP	51	96	6
TAP	51	144	2
TAP	51	144	5
TAP	51	192	4
TAP	51	216	3
TAP	51	264	2
TAP	51	264	4
TAP	51	312	3
TAP	51	312	5
TAP	51	360	1
TAP	51	360	6
STR	52	0	1
SUR	52	0	1	96	96	4
STR	52	192	6
SUL	52	192	6	96	96	3
TAP	53	0	2
TAP	53	96	1
TAP	53	96	4
TAP	53	144	2
TAP	53	144	5
TAP	53	192	3
TAP	53	216	4
TAP	53	264	3
TAP	53	264	5
TAP	53	312	2
TAP	53	312	4
TAP	53	360	1
TAP	53	360	6
STR	54	0	6
SUR	54	0	6	96	96	1
STR	54	192	2
SUR	54	192	2	96	96	5
TAP	55	0	7
TAP	55	96	0
TAP	55	96	6
TAP	55	144	1
TAP	55	144	7
TAP	55	192	0
TAP	55	216	7
TAP	55	264	1
TAP	55	264	6
TAP	55	312	2
TAP	55	312	5
STR	55	360	3
SCL	55	360	3	96	168	4
STR	55	360	4
SCR	55	360	4	96	168	3
TAP	56	48	3
TAP	56	48	4
TAP	56	288	2
TAP	56	288	5
TAP	57	0	3
TAP	57	24	4
TAP	57	48	3
TAP	57	72	4
TAP	57	120	1
TAP	57	144	6
TAP	57	168	1
TAP	57	192	5
TAP	57	216	2
TAP	57	240	5
TAP	57	264	2
BRK	57	312	0
BRK	57	312	7
TAP	58	0	1
TAP	58	48	0
TAP	58	48	2
TAP	58	96	7
TAP	58	144	0
TAP	58	144	6
TAP	58	192	5
TAP	58	240	6
TAP	58	240	7
TAP	58	288	0
TAP	58	336	1
TAP	58	336	7
TAP	59	0	6
TAP	59	48	5
TAP	59	48	7
TAP	59	96	0
TAP	59	144	1
TAP	59	144	7
TAP	59	192	2
TAP	59	240	0
TAP	59	240	1
TAP	59	288	7
TAP	59	336	0
TAP	59	336	6
TAP	60	0	5
TAP	60	48	4
TAP	60	48	6
TAP	60	96	2
TAP	60	144	1
TAP	60	144	3
TAP	60	192	0
TAP	60	240	4
TAP	60	240	5
TAP	60	288	7
TAP	60	336	2
TAP	60	336	3
TAP	61	0	0
TAP	61	24	7
TAP	61	48	1
TAP	61	72	6
TAP	61	96	2
TAP	61	120	5
TAP	61	144	3
TAP	61	168	4
TAP	61	192	2
TAP	61	216	5
TAP	61	240	1
TAP	61	264	6
TAP	61	288	0
BRK	61	336	3
BRK	61	336	7

T_REC_TAP	414
T_REC_BRK	14
T_REC_XTP	0
T_REC_HLD	38
T_REC_XHO	0
T_REC_STR	42
T_REC_BST	0
T_REC_XST	0
T_REC_TTP	0
T_REC_THO	0
T_REC_SLD	42
T_REC_ALL	550
T_NUM_TAP	456
T_NUM_BRK	14
T_NUM_HLD	38
T_NUM_SLD	42
T_NUM_ALL	550
T_JUDGE_TAP	470
T_JUDGE_HLD	87
T_JUDGE_SLD	42
T_JUDGE_ALL	599
TTM_EACHPAIRS	116
TTM_SCR_TAP	228000
TTM_SCR_BRK	36400
TTM_SCR_HLD	38000
TTM_SCR_SLD	63000
TTM_SCR_ALL	365400
TTM_SCR_S	353100
TTM_SCR_SS	364000
TTM_RAT_ACV	10038

