VERSION	0.00.00	1.03.00
FES_MODE	0
BPM_DEF	130.000	130.000	130.000	130.000
MET_DEF	4	4
RESOLUTION	384
CLK_DEF	384
COMPATIBLE_CODE	MA2

BPM	0	0	130.000
MET	0	0	4	4

TAP	2	0	7
TAP	2	48	0
TAP	2	96	6
TAP	2	144	1
TAP	2	192	5
TAP	2	240	2
TAP	2	288	7
TAP	2	312	0
HLD	2	360	1	312
TAP	2	360	6
TAP	3	48	7
TAP	3	96	6
TAP	3	144	5
STR	3	192	4
SCR	3	192	4	96	48	7
TAP	4	0	0
TAP	4	49	1
TAP	4	97	2
TAP	4	192	7
TAP	4	240	6
TAP	4	288	5
TAP	5	0	1
TAP	5	48	2
TAP	5	96	3
TAP	5	192	6
TAP	5	240	5
TAP	5	288	4
TAP	6	0	0
TAP	6	48	7
TAP	6	96	1
TAP	6	144	6
TAP	6	192	2
TAP	6	240	5
TAP	6	288	0
TAP	6	312	7
TAP	6	360	1
HLD	6	360	6	312
TAP	7	48	0
TAP	7	96	1
TAP	7	144	2
STR	7	192	3
SCL	7	192	3	96	48	0
TAP	8	0	7
TAP	8	48	6
TAP	8	96	5
TAP	8	192	0
TAP	8	241	1
TAP	8	289	2
TAP	9	0	6
TAP	9	48	5
TAP	9	96	4
TAP	9	192	1
TAP	9	240	2
TAP	9	288	3
TAP	10	0	1
TAP	10	48	1
TAP	10	96	0
TAP	10	192	6
TAP	10	240	6
TAP	10	288	7
TAP	11	0	4
HLD	11	0	5	96
TAP	11	96	4
HLD	11	192	2	96
TAP	11	192	3
TAP	11	288	3
TAP	12	0	6
TAP	12	48	6
TAP	12	96	7
TAP	12	192	1
TAP	12	240	1
TAP	12	288	0
HLD	13	0	2	96
TAP	13	0	3
TAP	13	96	3
TAP	13	192	4
HLD	13	192	5	96
TAP	13	288	4
TAP	14	0	1
TAP	14	48	7
TAP	14	96	1
TAP	14	192	6
TAP	14	240	0
TAP	14	288	6
TAP	15	0	3
TAP	15	0	5
TAP	15	48	5
TAP	15	96	3
TAP	15	96	5
TAP	15	192	2
TAP	15	192	4
TAP	15	240	2
TAP	15	288	2
TAP	15	288	4
TAP	16	0	6
TAP	16	48	0
TAP	16	96	6
TAP	16	192	1
TAP	16	240	7
TAP	16	288	1
TAP	17	0	2
TAP	17	0	4
TAP	17	48	2
TAP	17	96	2
TAP	17	96	4
TAP	17	192	3
TAP	17	192	5
TAP	17	240	5
TAP	17	288	3
TAP	17	288	5
TAP	18	0	7
TAP	18	48	0
HLD	18	96	6	96
TAP	18	192	0
TAP	18	240	7
HLD	18	288	1	96
TAP	19	0	7
TAP	19	48	0
HLD	19	96	6	96
TAP	19	192	0
TAP	19	240	7
HLD	19	288	1	96
STR	20	0	7
SCL	20	0	7	96	96	4
STR	20	192	0
SCR	20	192	0	96	96	3
STR	21	0	7
SCL	21	0	7	96	96	4
STR	21	192	0
SCR	21	192	0	96	96	3
TAP	22	0	6
TAP	22	48	7
HLD	22	96	5	96
TAP	22	192	1
TAP	22	240	0
HLD	22	288	2	96
TAP	23	0	6
TAP	23	48	7
HLD	23	96	5	96
TAP	23	192	1
TAP	23	240	0
HLD	23	288	2	96
STR	24	0	6
SCL	24	0	6	96	96	3
STR	24	192	1
SCR	24	192	1	96	96	4
STR	25	0	6
SCL	25	0	6	96	96	3
STR	25	192	1
SCR	25	192	1	96	96	4
HLD	26	0	7	72
HLD	26	72	1	72
HLD	26	144	3	72
HLD	26	216	5	72
TAP	26	288	7
HLD	27	0	7	72
HLD	27	72	5	72
HLD	27	144	3	72
HLD	27	216	1	72
TAP	27	288	7
STR	28	0	0
SI_	28	0	0	96	96	4
STR	28	192	7
SI_	28	192	7	96	96	3
STR	29	0	1
SI_	29	0	1	96	96	4
STR	29	192	6
SI_	29	192	6	96	96	3
HLD	30	0	0	72
HLD	30	72	6	72
HLD	30	144	4	72
HLD	30	216	2	72
TAP	30	288	0
HLD	31	0	0	72
HLD	31	72	2	72
HLD	31	144	4	72
HLD	31	216	6	72
TAP	31	288	0
STR	32	0	7
SCL	32	0	7	96	288	0
TAP	33	96	7
TAP	33	120	7
TAP	33	192	0
TAP	33	216	0
BRK	33	288	1
BRK	33	288	6
TAP	34	0	0
TAP	34	24	7
TAP	34	72	1
TAP	34	120	6
HLD	34	168	2	168
TAP	34	240	7
TAP	34	288	6
TAP	34	336	5
TAP	35	0	4
TAP	35	24	3
TAP	35	72	5
TAP	35	120	2
TAP	35	168	1
TAP	35	168	6
TAP	35	288	2
HLD	35	336	5	384
TAP	36	96	0
TAP	36	192	1
TAP	36	288	2
STR	36	336	1
SUL	36	336	1	96	240	0
TAP	38	0	7
TAP	38	24	0
TAP	38	72	6
TAP	38	120	1
HLD	38	168	5	168
TAP	38	240	0
TAP	38	288	1
TAP	38	336	2
TAP	39	0	3
TAP	39	24	4
TAP	39	72	2
TAP	39	120	5
TAP	39	168	1
TAP	39	168	6
TAP	39	288	5
HLD	39	336	2	384
TAP	40	96	7
TAP	40	192	6
TAP	40	288	5
STR	40	336	6
SUR	40	336	6	96	240	7
TAP	42	0	2
TAP	42	0	5
TAP	42	96	0
TAP	42	120	7
TAP	42	168	0
TAP	42	168	7
TAP	42	216	1
TAP	42	216	6
TAP	42	264	2
TAP	42	264	5
TAP	42	312	3
TAP	42	312	4
BRK	42	360	1
BRK	42	360	6
TAP	43	96	0
TAP	43	144	7
HLD	43	192	1	72
HLD	43	192	6	72
STR	43	336	1
SV_	43	336	1	96	144	3
STR	43	336	6
SV_	43	336	6	96	144	4
TAP	44	288	3
TAP	44	288	4
HLD	44	336	2	336
TAP	44	336	5
TAP	45	96	6
STR	45	192	7
SCL	45	192	7	96	48	5
TAP	46	0	2
TAP	46	0	5
TAP	46	96	0
TAP	46	120	7
TAP	46	168	0
TAP	46	168	7
TAP	46	216	1
TAP	46	216	6
TAP	46	264	2
TAP	46	264	5
TAP	46	312	3
TAP	46	312	4
BRK	46	360	1
BRK	46	360	6
TAP	47	96	0
TAP	47	144	7
HLD	47	192	1	72
HLD	47	192	6	72
STR	47	336	1
SV_	47	336	1	96	144	0
STR	47	336	6
SV_	47	336	6	96	144	7
TAP	48	288	3
TAP	48	288	4
TAP	48	336	2
HLD	48	336	5	336
TAP	49	96	1
STR	49	192	0
SCR	49	192	0	96	48	2
TAP	50	0	2
STR	50	0	5
SUL	50	0	5	96	192	2
TAP	51	0	1
TAP	51	0	3
TAP	51	96	2
TAP	51	144	3
TAP	51	192	2
TAP	51	240	1
TAP	51	288	0
TAP	51	288	2
STR	52	0	2
SUR	52	0	2	96	192	5
TAP	52	0	5
TAP	53	0	4
TAP	53	0	6
TAP	53	96	5
TAP	53	144	4
TAP	53	192	5
TAP	53	240	6
TAP	53	288	5
TAP	53	288	7
TAP	54	0	2
STR	54	0	5
SUL	54	0	5	96	192	2
TAP	55	0	1
TAP	55	0	3
TAP	55	96	2
TAP	55	144	3
TAP	55	192	2
TAP	55	240	1
TAP	55	288	0
TAP	55	288	2
TAP	56	0	4
TAP	56	0	5
TAP	56	96	6
TAP	56	96	7
TAP	56	192	0
TAP	56	192	1
TAP	56	288	2
TAP	56	288	3
TAP	57	0	5
TAP	57	48	4
TAP	57	48	5
TAP	57	96	2
TAP	57	144	2
TAP	57	144	3
TAP	57	192	6
TAP	57	216	1
TAP	57	240	6
TAP	57	264	1
BRK	57	312	0
BRK	57	312	7
TAP	58	0	7
TAP	58	48	0
TAP	58	96	6
TAP	58	144	1
TAP	58	192	5
TAP	58	240	2
TAP	58	288	7
TAP	58	312	0
HLD	58	360	1	312
TAP	58	360	6
TAP	59	48	7
TAP	59	96	6
TAP	59	144	5
STR	59	192	4
SCR	59	192	4	96	48	7
TAP	60	0	0
TAP	60	48	7
TAP	60	96	1
TAP	60	144	6
TAP	60	192	2
TAP	60	240	5
TAP	60	288	0
TAP	60	312	7
TAP	60	360	1
HLD	60	360	6	312
TAP	61	48	0
TAP	61	96	1
TAP	61	144	2
STR	61	192	3
SCL	61	192	3	96	48	0
BRK	61	336	7

T_REC_TAP	263
T_REC_BRK	9
T_REC_XTP	0
T_REC_HLD	42
T_REC_XHO	0
T_REC_STR	28
T_REC_BST	0
T_REC_XST	0
T_REC_TTP	0
T_REC_THO	0
T_REC_SLD	28
T_REC_ALL	370
T_NUM_TAP	291
T_NUM_BRK	9
T_NUM_HLD	42
T_NUM_SLD	28
T_NUM_ALL	370
T_JUDGE_TAP	300
T_JUDGE_HLD	130
T_JUDGE_SLD	28
T_JUDGE_ALL	458
TTM_EACHPAIRS	55
TTM_SCR_TAP	145500
TTM_SCR_BRK	23400
TTM_SCR_HLD	42000
TTM_SCR_SLD	42000
TTM_SCR_ALL	252900
TTM_SCR_S	244450
TTM_SCR_SS	252000
TTM_RAT_ACV	10035

