VERSION	0.00.00	1.03.00
FES_MODE	0
BPM_DEF	130.000	130.000	130.000	130.000
MET_DEF	4	4
RESOLUTION	384
CLK_DEF	384
COMPATIBLE_CODE	MA2

BPM	0	0	130.000
MET	0	0	4	4

TAP	2	96	2
TAP	2	96	3
TAP	2	288	4
TAP	2	288	5
TAP	3	96	6
TAP	3	96	7
TAP	3	288	0
TAP	3	288	1
TAP	4	96	2
TAP	4	96	3
TAP	4	288	4
TAP	4	288	5
TAP	5	96	3
TAP	5	96	4
TAP	5	192	2
TAP	5	192	5
TAP	5	288	1
TAP	5	288	6
TAP	6	96	0
TAP	6	96	7
TAP	6	288	3
TAP	6	288	6
TAP	7	96	2
TAP	7	96	5
TAP	7	288	1
TAP	7	288	4
TAP	8	96	0
TAP	8	96	7
TAP	8	192	1
TAP	8	192	6
TAP	8	288	2
TAP	8	288	5
HLD	9	0	3	96
HLD	9	0	4	96
TAP	9	192	1
TAP	9	192	6
TAP	9	288	0
TAP	9	336	7
TAP	10	0	0
TAP	10	96	1
TAP	10	96	6
TAP	10	192	2
TAP	10	192	5
TAP	10	288	4
TAP	10	336	3
TAP	11	0	4
TAP	11	96	2
TAP	11	96	5
TAP	11	192	3
TAP	11	240	4
TAP	11	288	3
TAP	11	336	4
TAP	12	0	3
TAP	12	96	4
TAP	12	96	5
TAP	12	192	2
TAP	12	192	3
TAP	12	288	1
TAP	12	336	0
TAP	13	0	1
TAP	13	96	6
TAP	13	144	7
TAP	13	192	6
TAP	13	288	0
TAP	13	336	7
TAP	14	0	0
TAP	14	96	1
TAP	14	96	6
TAP	14	192	2
TAP	14	192	5
TAP	14	288	3
TAP	14	336	4
TAP	15	0	3
TAP	15	96	2
TAP	15	96	5
TAP	15	192	4
TAP	15	240	3
TAP	15	288	4
TAP	15	336	3
TAP	16	0	4
TAP	16	96	2
TAP	16	96	3
TAP	16	192	4
TAP	16	192	5
TAP	16	288	3
TAP	16	288	4
TAP	17	0	2
TAP	17	0	5
TAP	17	192	3
TAP	17	192	4
TAP	17	288	1
TAP	17	288	6
TAP	18	0	0
TAP	18	96	1
TAP	18	96	7
TAP	18	192	2
TAP	18	240	3
TAP	18	288	2
TAP	19	0	4
TAP	19	96	3
TAP	19	96	5
TAP	19	192	6
TAP	19	240	7
TAP	19	288	6
TAP	20	0	0
TAP	20	96	1
TAP	20	96	7
TAP	20	192	2
TAP	20	240	3
TAP	20	288	2
TAP	21	0	5
TAP	21	48	4
TAP	21	96	5
TAP	21	192	6
TAP	21	240	7
TAP	21	288	6
TAP	22	0	7
TAP	22	96	0
TAP	22	96	6
TAP	22	192	5
TAP	22	240	4
TAP	22	288	5
TAP	23	0	3
TAP	23	96	2
TAP	23	96	4
TAP	23	192	1
TAP	23	240	0
TAP	23	288	1
TAP	24	0	7
TAP	24	96	0
TAP	24	96	6
TAP	24	192	5
TAP	24	240	4
TAP	24	288	5
TAP	25	0	2
TAP	25	48	3
TAP	25	96	2
TAP	25	192	1
TAP	25	240	0
TAP	25	288	1
HLD	26	0	6	192
HLD	26	192	5	192
HLD	27	0	4	192
HLD	27	192	3	96
TAP	27	288	4
TAP	28	0	2
TAP	28	0	5
TAP	28	96	1
TAP	28	96	4
TAP	28	192	0
TAP	28	240	7
TAP	28	288	6
TAP	29	0	2
TAP	29	0	5
TAP	29	96	3
TAP	29	96	6
TAP	29	192	7
TAP	29	240	0
TAP	29	288	1
HLD	30	0	1	192
HLD	30	192	2	192
HLD	31	0	3	192
HLD	31	192	4	96
TAP	31	288	3
TAP	32	0	2
TAP	32	0	5
TAP	32	96	1
TAP	32	96	6
TAP	32	192	0
TAP	32	240	7
TAP	32	288	0
TAP	32	336	7
TAP	33	0	0
TAP	33	96	6
TAP	33	96	7
TAP	33	192	0
TAP	33	192	1
BRK	33	288	0
BRK	33	288	7
TAP	34	0	2
TAP	34	48	3
TAP	34	96	2
TAP	34	144	4
TAP	34	192	4
TAP	34	240	1
TAP	34	288	1
TAP	35	0	5
TAP	35	48	4
TAP	35	96	5
TAP	35	144	3
TAP	35	192	3
TAP	35	240	6
TAP	35	288	6
TAP	36	0	7
TAP	36	48	0
TAP	36	96	7
TAP	36	144	1
TAP	36	192	1
TAP	36	240	6
TAP	36	288	6
TAP	37	0	5
TAP	37	48	5
TAP	37	96	4
TAP	37	96	5
TAP	37	192	2
TAP	37	240	2
TAP	37	288	2
TAP	37	288	3
TAP	38	0	5
TAP	38	48	4
TAP	38	96	5
TAP	38	144	3
TAP	38	192	3
TAP	38	240	6
TAP	38	288	6
TAP	39	0	2
TAP	39	48	3
TAP	39	96	2
TAP	39	144	4
TAP	39	192	4
TAP	39	240	1
TAP	39	288	1
TAP	40	0	0
TAP	40	48	7
TAP	40	96	0
TAP	40	144	6
TAP	40	192	6
TAP	40	240	1
TAP	40	288	1
TAP	41	0	2
TAP	41	48	3
TAP	41	96	4
TAP	41	144	5
TAP	41	192	3
TAP	41	192	4
TAP	41	288	1
TAP	41	288	6
STR	42	0	2
SCL	42	0	2	96	192	5
TAP	43	0	3
TAP	43	0	4
TAP	43	96	5
TAP	43	144	5
TAP	43	192	4
TAP	43	240	4
TAP	43	288	3
TAP	43	336	3
TAP	44	0	2
TAP	44	96	0
TAP	44	96	1
TAP	44	192	2
TAP	44	192	3
TAP	44	288	4
TAP	44	288	5
TAP	45	0	2
TAP	45	48	3
TAP	45	96	2
TAP	45	192	5
TAP	45	240	4
TAP	45	288	5
STR	46	0	5
SCR	46	0	5	96	192	2
TAP	47	0	3
TAP	47	0	4
TAP	47	96	2
TAP	47	144	2
TAP	47	192	3
TAP	47	240	3
TAP	47	288	4
TAP	47	336	4
TAP	48	0	5
TAP	48	96	6
TAP	48	96	7
TAP	48	192	4
TAP	48	192	5
TAP	48	288	2
TAP	48	288	3
TAP	49	0	0
TAP	49	0	1
TAP	49	96	6
TAP	49	96	7
TAP	49	192	0
TAP	49	240	7
TAP	49	288	1
TAP	49	336	6
STR	50	0	2
SI_	50	0	2	96	48	4
STR	50	192	5
SI_	50	192	5	96	48	3
STR	51	0	1
SI_	51	0	1	96	48	4
STR	51	192	6
SI_	51	192	6	96	48	3
STR	52	0	0
SI_	52	0	0	96	48	4
STR	52	192	7
SI_	52	192	7	96	48	3
STR	53	0	0
SI_	53	0	0	96	48	5
STR	53	192	7
SI_	53	192	7	96	48	2
STR	54	0	0
SI_	54	0	0	96	48	4
STR	54	192	7
SI_	54	192	7	96	48	3
STR	55	0	1
SI_	55	0	1	96	48	4
STR	55	192	6
SI_	55	192	6	96	48	3
STR	56	0	0
SSL	56	0	0	96	192	4
TAP	57	0	3
TAP	57	0	4
TAP	57	96	2
TAP	57	96	5
TAP	57	192	1
TAP	57	240	6
TAP	57	288	0
TAP	57	288	7
TAP	58	0	1
TAP	58	48	7
TAP	58	96	1
TAP	58	192	1
TAP	58	240	3
TAP	58	288	1
TAP	59	0	6
TAP	59	48	4
TAP	59	96	6
TAP	59	192	6
TAP	59	240	0
TAP	59	288	6
TAP	60	0	1
TAP	60	48	0
TAP	60	96	2
TAP	60	96	7
TAP	60	192	6
TAP	60	240	7
TAP	60	288	0
TAP	60	288	5
TAP	61	0	7
TAP	61	48	0
TAP	61	96	6
TAP	61	144	1
TAP	61	192	5
TAP	61	240	2
TAP	61	288	4
TAP	61	336	3

T_REC_TAP	305
T_REC_BRK	2
T_REC_XTP	0
T_REC_HLD	10
T_REC_XHO	0
T_REC_STR	15
T_REC_BST	0
T_REC_XST	0
T_REC_TTP	0
T_REC_THO	0
T_REC_SLD	15
T_REC_ALL	347
T_NUM_TAP	320
T_NUM_BRK	2
T_NUM_HLD	10
T_NUM_SLD	15
T_NUM_ALL	347
T_JUDGE_TAP	322
T_JUDGE_HLD	32
T_JUDGE_SLD	15
T_JUDGE_ALL	369
TTM_EACHPAIRS	66
TTM_SCR_TAP	160000
TTM_SCR_BRK	5200
TTM_SCR_HLD	10000
TTM_SCR_SLD	22500
TTM_SCR_ALL	197700
TTM_SCR_S	191600
TTM_SCR_SS	197500
TTM_RAT_ACV	10010

