VERSION	0.00.00	1.03.00
FES_MODE	0
BPM_DEF	130.000	130.000	130.000	130.000
MET_DEF	4	4
RESOLUTION	384
CLK_DEF	384
COMPATIBLE_CODE	MA2

BPM	0	0	130.000
MET	0	0	4	4

TAP	4	0	7
TAP	5	0	0
TAP	6	0	7
TAP	6	192	0
TAP	7	0	7
TAP	7	192	0
TAP	8	0	7
TAP	8	192	7
TAP	9	0	0
TAP	9	192	0
TAP	10	0	1
TAP	10	192	0
TAP	11	0	1
TAP	11	96	1
TAP	11	192	1
TAP	12	0	3
TAP	12	192	2
TAP	13	0	3
TAP	13	96	3
TAP	13	192	3
TAP	14	0	5
TAP	14	192	4
TAP	15	0	5
TAP	15	96	5
TAP	15	192	5
TAP	16	0	7
TAP	16	192	6
TAP	17	0	7
TAP	17	96	7
TAP	17	192	7
BRK	17	288	7
TAP	18	192	7
TAP	18	288	7
TAP	19	192	6
TAP	19	288	6
TAP	20	192	0
TAP	20	288	0
TAP	21	192	1
TAP	21	288	1
TAP	22	192	2
TAP	22	288	2
TAP	23	192	3
TAP	23	288	3
TAP	24	192	5
TAP	24	288	5
TAP	25	192	4
TAP	25	288	4
BRK	26	0	4
HLD	26	192	3	192
HLD	27	192	4	192
HLD	28	192	2	193
HLD	29	192	5	192
HLD	30	192	1	192
HLD	31	192	6	192
HLD	32	192	0	192
HLD	32	192	7	192
TAP	33	192	0
TAP	33	192	7
BRK	34	0	0
BRK	34	0	7
TAP	34	192	0
TAP	34	288	0
TAP	35	0	1
TAP	35	192	2
TAP	35	288	2
TAP	36	0	3
TAP	36	192	4
TAP	36	288	4
TAP	37	0	5
TAP	37	192	6
TAP	37	288	6
TAP	38	0	7
TAP	38	192	7
TAP	38	288	7
TAP	39	0	6
TAP	39	0	7
TAP	39	192	5
TAP	39	288	5
TAP	40	0	4
TAP	40	0	5
TAP	40	192	3
TAP	40	288	3
TAP	41	0	2
TAP	41	0	3
TAP	41	192	1
TAP	41	288	1
TAP	42	0	0
TAP	42	0	1
TAP	42	192	7
TAP	42	288	7
TAP	43	0	7
TAP	43	192	0
TAP	44	0	7
TAP	44	192	7
TAP	44	288	7
TAP	45	0	6
TAP	45	192	6
TAP	45	288	5
TAP	46	0	4
TAP	46	192	0
TAP	46	288	0
TAP	47	0	0
TAP	47	192	7
TAP	48	0	0
TAP	48	192	0
TAP	48	288	0
TAP	49	0	1
TAP	49	192	1
TAP	49	288	2
BRK	50	0	3
TAP	51	192	6
TAP	51	288	7
STR	52	0	0
SI_	52	0	0	96	288	3
TAP	53	192	1
TAP	53	288	0
STR	54	0	7
SI_	54	0	7	96	288	4
TAP	55	192	5
TAP	55	288	6
STR	56	0	7
SI_	56	0	7	96	288	4
BRK	57	192	0
HLD	58	0	1	192
HLD	59	0	0	192
HLD	60	0	7	192
STR	61	0	6
SI_	61	0	6	96	288	3

T_REC_TAP	103
T_REC_BRK	6
T_REC_XTP	0
T_REC_HLD	11
T_REC_XHO	0
T_REC_STR	4
T_REC_BST	0
T_REC_XST	0
T_REC_TTP	0
T_REC_THO	0
T_REC_SLD	4
T_REC_ALL	128
T_NUM_TAP	107
T_NUM_BRK	6
T_NUM_HLD	11
T_NUM_SLD	4
T_NUM_ALL	128
T_JUDGE_TAP	113
T_JUDGE_HLD	45
T_JUDGE_SLD	4
T_JUDGE_ALL	162
TTM_EACHPAIRS	7
TTM_SCR_TAP	53500
TTM_SCR_BRK	15600
TTM_SCR_HLD	11000
TTM_SCR_SLD	6000
TTM_SCR_ALL	86100
TTM_SCR_S	82950
TTM_SCR_SS	85500
TTM_RAT_ACV	10070

