VERSION	0.00.00	1.03.00
FES_MODE	0
BPM_DEF	180.000	180.000	180.000	180.000
MET_DEF	4	4
RESOLUTION	384
CLK_DEF	384
COMPATIBLE_CODE	MA2

BPM	0	0	180.000
MET	0	0	4	4

TAP	1	0	0
TAP	1	48	2
TAP	1	96	4
TAP	1	144	6
TAP	1	192	4
TAP	1	240	2
TAP	1	288	0
HLD	1	336	7	96
TAP	2	48	5
TAP	2	96	6
TAP	2	144	7
TAP	2	192	0
TAP	2	240	1
TAP	2	288	2
TAP	2	336	3
TAP	3	0	7
TAP	3	48	5
TAP	3	96	3
TAP	3	144	1
TAP	3	192	3
TAP	3	240	5
TAP	3	288	7
HLD	3	336	0	96
HLD	4	48	2	96
HLD	4	144	1	96
HLD	4	240	0	96
TAP	4	336	7
TAP	5	0	7
TAP	5	48	5
TAP	5	96	3
TAP	5	144	1
TAP	5	192	3
TAP	5	240	5
TAP	5	288	7
HLD	5	336	0	96
TAP	6	48	2
TAP	6	96	1
TAP	6	144	0
TAP	6	192	7
TAP	6	240	6
BRK	6	288	5
STR	7	0	0
SCR	7	0	0	96	48	3
STR	7	96	0
SUL	7	96	0	96	96	5
BST	7	336	0
SI_	7	336	0	96	48	3
BST	8	48	0
SI_	8	48	0	96	48	5
BRK	8	144	0
TAP	8	240	4
STR	8	288	4
SF_	8	288	4	96	192	0
TAP	10	0	1
TAP	10	0	4
TAP	10	48	2
TAP	10	72	3
TAP	10	96	2
TAP	10	192	3
TAP	10	192	6
TAP	10	240	5
TAP	10	264	4
TAP	10	288	5
TAP	11	0	1
TAP	11	0	6
TAP	11	48	3
TAP	11	72	4
TAP	11	96	3
TAP	11	192	2
TAP	11	192	3
TAP	11	240	2
TAP	11	240	3
TAP	11	288	4
TAP	11	288	5
TAP	11	336	4
TAP	11	336	5
TAP	12	0	2
TAP	12	0	7
TAP	12	48	1
TAP	12	72	0
TAP	12	96	1
TAP	12	192	0
TAP	12	192	5
TAP	12	240	6
TAP	12	264	7
TAP	12	288	6
TAP	13	0	0
TAP	13	0	5
TAP	13	48	2
TAP	13	72	3
TAP	13	96	2
TAP	13	192	6
TAP	13	192	7
TAP	13	240	6
TAP	13	240	7
TAP	13	288	4
TAP	13	288	5
TAP	13	336	4
TAP	13	336	5
TAP	14	0	6
TAP	14	48	2
TAP	14	72	3
TAP	14	96	1
TAP	14	144	3
TAP	14	192	1
TAP	14	240	5
TAP	14	264	4
TAP	14	288	6
TAP	14	336	5
TAP	15	0	4
TAP	15	48	0
TAP	15	72	7
TAP	15	96	1
TAP	15	144	0
TAP	15	192	0
TAP	15	192	1
TAP	15	240	0
TAP	15	240	1
TAP	15	288	2
TAP	15	288	3
TAP	15	336	2
TAP	15	336	3
TAP	16	0	5
TAP	16	48	1
TAP	16	72	0
TAP	16	96	2
TAP	16	144	1
TAP	16	192	2
TAP	16	240	6
TAP	16	264	7
TAP	16	288	5
BRK	16	336	6
TAP	17	0	3
TAP	17	0	7
TAP	17	48	0
TAP	17	48	4
TAP	17	96	1
TAP	17	96	5
TAP	17	144	2
TAP	17	144	6
BRK	17	240	7
BRK	17	288	7
HLD	18	0	1	48
TAP	18	48	0
HLD	18	96	1	48
TAP	18	144	2
HLD	18	192	1	48
TAP	18	240	7
HLD	18	288	1	48
TAP	18	336	3
HLD	19	0	1	48
TAP	19	48	6
HLD	19	96	1	48
TAP	19	144	4
HLD	19	192	1	48
TAP	19	240	5
TAP	19	288	1
TAP	19	336	5
STR	20	0	1
SI_	20	0	1	96	48	5
STR	20	96	5
SI_	20	96	5	96	48	1
STR	20	192	1
SI_	20	192	1	96	48	5
TAP	21	0	7
TAP	21	48	0
TAP	21	48	6
TAP	21	96	1
TAP	21	96	5
TAP	21	192	0
TAP	21	240	1
TAP	21	240	7
TAP	21	288	2
TAP	21	288	6
TAP	21	336	3
TAP	21	336	5
HLD	22	0	6	48
TAP	22	48	7
HLD	22	96	6	48
TAP	22	144	5
HLD	22	192	6	48
TAP	22	240	0
HLD	22	288	6	48
TAP	22	336	4
HLD	23	0	6	48
TAP	23	48	1
HLD	23	96	6	48
TAP	23	144	3
HLD	23	192	6	48
TAP	23	240	2
TAP	23	288	6
TAP	23	336	2
STR	24	0	3
SCL	24	0	3	96	48	0
STR	24	0	7
SCL	24	0	7	96	48	4
STR	24	96	3
SUR	24	96	3	96	48	7
STR	24	96	7
SUR	24	96	7	96	48	3
TAP	25	0	2
TAP	25	0	3
TAP	25	48	2
TAP	25	48	3
TAP	25	96	4
TAP	25	96	5
TAP	25	144	4
TAP	25	144	5
TAP	25	192	1
TAP	25	192	3
TAP	25	240	1
TAP	25	240	3
TAP	25	288	4
TAP	25	288	6
TAP	25	336	4
TAP	25	336	6
TAP	26	0	2
TAP	26	48	1
TAP	26	96	1
TAP	26	144	0
TAP	26	192	0
TAP	26	240	7
TAP	26	288	7
TAP	26	336	6
TAP	27	0	6
TAP	27	48	5
TAP	27	96	5
TAP	27	144	4
TAP	27	192	4
TAP	27	240	3
TAP	27	288	3
TAP	27	336	2
STR	28	0	2
SXR	28	0	2	96	192	4
STR	29	0	3
SI_	29	0	3	96	48	7
STR	29	0	5
SI_	29	0	5	96	48	7
STR	29	192	2
SI_	29	192	2	96	48	0
STR	29	192	4
SI_	29	192	4	96	48	0
TAP	30	0	5
TAP	30	48	6
TAP	30	96	6
TAP	30	144	7
TAP	30	192	7
TAP	30	240	0
TAP	30	288	0
TAP	30	336	1
TAP	31	0	1
TAP	31	48	2
TAP	31	96	2
TAP	31	144	3
TAP	31	192	3
TAP	31	240	4
TAP	31	288	4
TAP	31	336	5
STR	32	0	5
SXL	32	0	5	96	192	3
TAP	33	0	0
TAP	33	0	1
BRK	33	48	0
BRK	33	48	1
TAP	33	96	6
TAP	33	96	7
BRK	33	144	6
BRK	33	144	7
TAP	33	192	0
TAP	33	192	1
BRK	33	240	0
BRK	33	240	1
TAP	33	288	6
TAP	33	288	7
BRK	33	336	6
BRK	33	336	7
TAP	34	0	0
TAP	34	48	7
TAP	34	96	0
TAP	34	144	2
HLD	34	192	1	72
HLD	34	264	7	72
HLD	34	336	5	48
HLD	35	0	3	144
HLD	35	144	2	144
HLD	35	288	3	96
HLD	36	0	4	144
HLD	36	144	5	144
TAP	36	288	4
TAP	37	0	1
TAP	37	0	6
TAP	37	144	0
TAP	37	144	7
BRK	37	192	0
BRK	37	192	7
STR	37	288	0
SCR	37	288	0	96	96	4
SUR	37	288	0	96	96	4
TAP	37	336	0
STR	38	192	7
SCL	38	192	7	96	96	3
TAP	38	264	7
TAP	38	336	0
HLD	39	0	1	144
HLD	39	144	3	144
TAP	39	288	0
STR	40	0	7
SCL	40	0	7	96	96	3
STR	40	96	3
SCL	40	96	3	96	96	7
STR	40	192	7
SCL	40	192	7	96	96	3
STR	40	288	3
SXL	40	288	3	96	240	7
BRK	41	0	0
BRK	41	96	1
BRK	41	192	2
BRK	41	288	3
BST	42	0	0
SI_	42	0	0	96	48	2
SI_	42	0	0	96	48	6
BST	42	96	0
SI_	42	96	0	96	48	4
BST	42	192	0
SI_	42	192	0	96	48	3
SI_	42	192	0	96	48	5
BRK	42	288	0
TAP	43	0	1
TAP	43	0	7
TAP	43	48	0
TAP	43	96	1
TAP	43	96	7
TAP	43	144	0
TAP	43	192	2
TAP	43	192	6
TAP	43	240	0
TAP	43	288	2
TAP	43	288	6
TAP	43	336	0
TAP	44	0	0
TAP	44	0	6
TAP	44	48	7
TAP	44	96	0
TAP	44	96	6
TAP	44	144	7
TAP	44	192	1
TAP	44	192	5
TAP	44	240	7
TAP	44	288	1
TAP	44	288	5
TAP	44	336	7
STR	45	0	1
SI_	45	0	1	96	48	5
TAP	45	48	1
STR	45	96	2
SI_	45	96	2	96	48	6
TAP	45	144	2
STR	45	192	3
SI_	45	192	3	96	48	7
TAP	45	240	3
STR	45	288	4
SI_	45	288	4	96	48	0
TAP	45	336	4
STR	46	0	7
SCL	46	0	7	96	144	0
STR	47	0	0
SCR	47	0	0	96	96	4
STR	47	0	4
SCR	47	0	4	96	96	0
STR	47	96	0
SUL	47	96	0	96	96	4
STR	47	96	4
SUL	47	96	4	96	96	0
STR	48	0	7
SLL	48	0	7	96	96	3
STR	48	96	3
SLL	48	96	3	96	96	7
STR	48	192	7
SLL	48	192	7	96	96	3
STR	49	0	0
SI_	49	0	0	96	48	4
TAP	49	96	0
TAP	49	192	3
TAP	49	192	5
TAP	49	264	2
TAP	49	264	6
TAP	49	336	1
TAP	49	336	7
STR	50	0	0
SI_	50	0	0	96	48	2
STR	50	96	0
SI_	50	96	0	96	48	6
STR	50	192	0
SV_	50	192	0	96	48	3
SV_	50	192	0	96	48	5
BRK	50	288	0
TAP	51	0	2
TAP	51	0	4
TAP	51	48	3
TAP	51	96	2
TAP	51	96	4
TAP	51	144	3
TAP	51	192	1
TAP	51	192	5
TAP	51	240	3
TAP	51	288	1
TAP	51	288	5
TAP	51	336	3
TAP	52	0	3
TAP	52	0	5
TAP	52	48	4
TAP	52	96	3
TAP	52	96	5
TAP	52	144	4
TAP	52	192	2
TAP	52	192	6
TAP	52	240	4
TAP	52	288	2
TAP	52	288	6
TAP	52	336	4
STR	53	0	6
SI_	53	0	6	96	48	2
TAP	53	48	6
STR	53	96	7
SI_	53	96	7	96	48	3
TAP	53	144	7
STR	53	192	0
SI_	53	192	0	96	48	4
TAP	53	240	0
STR	53	288	1
SI_	53	288	1	96	48	5
TAP	53	336	1
STR	54	0	4
SCR	54	0	4	96	144	3
STR	55	0	1
SCL	55	0	1	96	48	6
TAP	55	0	6
TAP	55	192	0
TAP	55	192	7
TAP	55	264	1
TAP	55	264	6
TAP	55	336	2
TAP	55	336	5
STR	56	0	3
SI_	56	0	3	96	48	1
STR	56	96	3
SI_	56	96	3	96	48	5
STR	56	192	3
SV_	56	192	3	96	48	0
SV_	56	192	3	96	48	6
STR	57	0	1
SI_	57	0	1	96	48	3
STR	57	96	0
SI_	57	96	0	96	48	4
STR	57	192	7
SI_	57	192	7	96	48	5
STR	57	288	7
SI_	57	288	7	96	48	3
STR	58	0	0
SI_	58	0	0	96	48	2
STR	58	96	6
SI_	58	96	6	96	48	4
STR	58	192	1
SI_	58	192	1	96	48	5
STR	58	288	7
SI_	58	288	7	96	48	2
SI_	58	288	7	96	48	4
BRK	59	0	7
TAP	59	192	3
TAP	59	216	4
TAP	59	240	3
TAP	59	264	4
TAP	59	288	3
STR	60	0	0
SI_	60	0	0	96	48	4
STR	60	96	4
SF_	60	96	4	96	96	0
TAP	61	0	2
TAP	61	24	3
TAP	61	48	2
TAP	61	72	3
TAP	61	96	2
TAP	61	192	5
TAP	61	216	4
TAP	61	240	5
TAP	61	264	4
TAP	61	288	5
STR	62	0	7
SI_	62	0	7	96	48	3
STR	62	96	3
SF_	62	96	3	96	96	7
TAP	63	0	5
TAP	63	24	4
TAP	63	48	6
TAP	63	72	4
TAP	63	96	5
TAP	63	192	2
TAP	63	216	3
TAP	63	240	1
TAP	63	264	3
TAP	63	288	2
STR	64	0	1
SI_	64	0	1	96	48	5
STR	64	96	5
SF_	64	96	5	96	96	1
TAP	65	0	0
TAP	65	24	7
TAP	65	48	1
TAP	65	72	6
TAP	65	96	0
TAP	65	192	4
TAP	65	216	3
TAP	65	240	5
TAP	65	264	2
TAP	65	288	4
TAP	66	0	4
TAP	66	0	5
TAP	66	48	3
TAP	66	48	4
TAP	66	96	2
TAP	66	96	3
TAP	66	144	3
TAP	66	144	4
BST	66	192	4
SI_	66	192	4	96	48	1
BST	66	192	5
SI_	66	192	5	96	48	0
TAP	67	0	6
TAP	67	24	7
TAP	67	48	6
TAP	67	72	0
TAP	67	96	7
TAP	67	192	1
TAP	67	216	0
TAP	67	240	1
TAP	67	264	7
TAP	67	288	0
STR	68	0	7
SI_	68	0	7	96	48	3
STR	68	96	3
SLL	68	96	3	96	96	7
SLR	68	96	3	96	96	7
TAP	69	0	1
TAP	69	24	0
TAP	69	48	2
TAP	69	72	7
TAP	69	96	0
TAP	69	192	6
TAP	69	216	7
TAP	69	240	5
TAP	69	264	0
TAP	69	288	7
TAP	70	0	0
TAP	70	0	1
TAP	70	72	2
TAP	70	96	7
TAP	70	144	0
TAP	70	144	1
BRK	70	192	2
BRK	70	192	7
TAP	71	0	3
TAP	71	24	4
TAP	71	48	2
TAP	71	72	4
TAP	71	96	3
STR	71	192	6
SI_	71	192	6	96	48	2
TAP	71	216	7
TAP	71	240	5
TAP	71	264	7
TAP	71	288	6
STR	72	0	0
SI_	72	0	0	96	48	4
STR	72	96	4
SLL	72	96	4	96	96	0
SLR	72	96	4	96	96	0
TAP	73	0	4
TAP	73	24	3
TAP	73	48	5
TAP	73	72	3
TAP	73	96	4
STR	73	192	1
SI_	73	192	1	96	48	5
TAP	73	216	0
TAP	73	240	2
TAP	73	264	0
TAP	73	288	1
TAP	74	0	6
TAP	74	48	7
TAP	74	96	0
TAP	74	144	1
TAP	74	240	3
TAP	74	240	4
STR	74	288	2
SXL	74	288	2	96	576	0
STR	74	288	5
SXR	74	288	5	96	576	7
BRK	75	0	2
BRK	75	0	5

T_REC_TAP	383
T_REC_BRK	26
T_REC_XTP	0
T_REC_HLD	30
T_REC_XHO	0
T_REC_STR	69
T_REC_BST	7
T_REC_XST	0
T_REC_TTP	0
T_REC_THO	0
T_REC_SLD	84
T_REC_ALL	599
T_NUM_TAP	452
T_NUM_BRK	33
T_NUM_HLD	30
T_NUM_SLD	84
T_NUM_ALL	599
T_JUDGE_TAP	485
T_JUDGE_HLD	51
T_JUDGE_SLD	84
T_JUDGE_ALL	620
TTM_EACHPAIRS	86
TTM_SCR_TAP	226000
TTM_SCR_BRK	85800
TTM_SCR_HLD	30000
TTM_SCR_SLD	126000
TTM_SCR_ALL	467800
TTM_SCR_S	450600
TTM_SCR_SS	464500
TTM_RAT_ACV	10071

