VERSION	0.00.00	1.03.00
FES_MODE	0
BPM_DEF	180.000	180.000	180.000	180.000
MET_DEF	4	4
RESOLUTION	384
CLK_DEF	384
COMPATIBLE_CODE	MA2

BPM	0	0	180.000
MET	0	0	4	4

TAP	1	0	0
TAP	1	96	1
TAP	1	192	2
TAP	1	288	3
TAP	1	288	4
TAP	2	0	5
TAP	2	96	6
TAP	2	192	7
TAP	2	240	0
TAP	2	288	7
TAP	3	0	7
TAP	3	96	6
TAP	3	192	5
TAP	3	288	3
TAP	3	288	4
HLD	4	0	2	288
TAP	4	192	0
BRK	4	288	0
TAP	5	0	4
TAP	5	96	5
TAP	5	192	6
TAP	5	288	0
TAP	5	288	7
TAP	6	0	1
TAP	6	96	2
TAP	6	192	3
TAP	6	240	4
TAP	6	288	3
TAP	7	0	3
TAP	7	96	2
TAP	7	192	1
TAP	7	288	0
TAP	7	288	7
TAP	7	336	0
TAP	7	336	7
TAP	8	48	1
TAP	8	48	6
HLD	8	144	1	144
HLD	8	144	6	144
BST	9	0	0
SSL	9	0	0	96	192	4
BRK	9	0	7
TAP	10	0	6
TAP	10	96	6
TAP	10	96	7
TAP	10	192	1
TAP	10	288	0
TAP	10	288	1
TAP	11	0	6
TAP	11	96	6
TAP	11	96	7
TAP	11	192	3
TAP	11	240	4
TAP	11	288	3
TAP	12	0	1
TAP	12	96	0
TAP	12	96	1
TAP	12	192	6
TAP	12	288	6
TAP	12	288	7
TAP	13	0	1
TAP	13	96	0
TAP	13	96	1
TAP	13	192	4
TAP	13	240	3
TAP	13	288	4
TAP	14	0	6
TAP	14	96	5
TAP	14	96	7
TAP	14	192	1
TAP	14	288	0
TAP	14	288	2
TAP	15	0	6
TAP	15	96	5
TAP	15	96	7
TAP	15	192	3
TAP	15	240	4
TAP	15	288	3
TAP	16	0	1
TAP	16	96	0
TAP	16	96	2
TAP	16	192	6
STR	16	288	5
SXL	16	288	5	96	144	3
TAP	16	288	7
BRK	17	240	0
BRK	17	288	0
STR	18	0	0
SCL	18	0	0	96	192	4
SCR	18	0	0	96	192	4
STR	19	0	7
SCL	19	0	7	96	192	3
SCR	19	0	7	96	192	3
HLD	20	0	0	192
HLD	20	0	7	192
TAP	20	288	0
TAP	20	288	7
TAP	21	0	0
TAP	21	0	1
TAP	21	96	3
TAP	21	96	4
TAP	21	192	6
TAP	21	192	7
TAP	21	288	3
TAP	21	288	4
STR	22	0	1
SUL	22	0	1	96	192	5
SUR	22	0	1	96	192	5
STR	23	0	6
SUL	23	0	6	96	192	2
SUR	23	0	6	96	192	2
HLD	24	0	0	192
HLD	24	0	7	192
TAP	24	288	0
TAP	24	288	7
TAP	25	0	3
TAP	25	48	4
TAP	25	96	3
TAP	25	144	4
TAP	25	192	2
TAP	25	240	5
TAP	25	288	2
TAP	25	336	5
STR	26	0	3
SV_	26	0	3	96	192	0
SLR	26	0	3	96	192	0
STR	27	0	4
SV_	27	0	4	96	192	7
SLL	27	0	4	96	192	7
HLD	28	0	1	192
HLD	28	0	6	192
TAP	28	288	1
TAP	28	288	6
TAP	29	0	2
HLD	29	0	4	96
TAP	29	96	7
HLD	29	192	3	96
TAP	29	192	5
TAP	29	288	0
STR	30	0	2
SCR	30	0	2	96	192	0
SUR	30	0	2	96	192	0
STR	31	0	5
SCL	31	0	5	96	192	7
SUL	31	0	5	96	192	7
HLD	32	0	1	192
HLD	32	0	6	192
TAP	32	288	1
TAP	32	288	6
TAP	33	0	2
TAP	33	48	3
TAP	33	96	2
TAP	33	144	4
TAP	33	192	2
TAP	33	240	3
TAP	33	288	2
TAP	33	336	4
HLD	34	0	2	96
TAP	34	96	1
HLD	34	192	5	96
TAP	34	288	6
HLD	35	0	1	96
TAP	35	96	2
HLD	35	192	6	96
TAP	35	288	5
HLD	36	0	3	96
TAP	36	96	2
HLD	36	192	4	96
TAP	36	288	5
TAP	37	0	0
TAP	37	0	7
TAP	37	96	3
TAP	37	96	4
BRK	37	192	1
BRK	37	192	6
HLD	38	0	0	96
TAP	38	96	2
HLD	38	192	7	96
TAP	38	288	5
HLD	39	0	2	96
TAP	39	96	0
HLD	39	192	5	96
TAP	39	288	7
TAP	40	0	3
TAP	40	0	4
TAP	40	96	2
TAP	40	96	5
TAP	40	192	1
TAP	40	192	6
TAP	40	288	0
TAP	40	288	7
BRK	41	0	0
BRK	41	96	0
BRK	41	192	0
BRK	41	288	0
TAP	42	0	7
TAP	42	96	6
TAP	42	192	5
TAP	42	288	4
STR	43	0	0
SCR	43	0	0	96	48	3
TAP	43	96	6
STR	43	192	7
SCL	43	192	7	96	48	4
TAP	43	288	1
STR	44	0	1
SI_	44	0	1	96	48	5
TAP	44	96	6
STR	44	192	6
SI_	44	192	6	96	48	2
TAP	44	288	1
TAP	45	0	0
TAP	45	96	6
TAP	45	96	7
TAP	45	192	0
TAP	45	192	1
TAP	45	288	6
TAP	45	288	7
HLD	46	0	0	192
HLD	46	0	1	192
TAP	46	288	0
TAP	46	288	1
TAP	47	0	1
TAP	47	0	3
TAP	47	96	2
TAP	47	96	4
TAP	47	192	3
TAP	47	192	5
TAP	47	288	4
STR	47	288	6
SXR	47	288	6	96	192	2
TAP	49	0	4
TAP	49	0	6
TAP	49	96	3
TAP	49	96	5
TAP	49	192	2
TAP	49	192	4
STR	49	288	1
SXL	49	288	1	96	192	5
TAP	49	288	3
HLD	51	0	4	96
STR	51	0	5
SCR	51	0	5	96	96	0
TAP	51	192	3
TAP	51	288	3
STR	52	0	2
SCL	52	0	2	96	96	7
HLD	52	0	3	96
TAP	52	192	4
TAP	52	288	4
TAP	53	0	6
TAP	53	0	7
TAP	53	96	0
TAP	53	96	5
TAP	53	192	1
TAP	53	192	4
TAP	53	288	2
TAP	53	288	3
STR	54	0	2
SI_	54	0	2	96	96	6
STR	54	0	3
SI_	54	0	3	96	96	7
STR	55	0	0
SCR	55	0	0	96	192	3
TAP	55	0	7
TAP	55	96	6
TAP	55	192	5
TAP	55	288	4
TAP	56	0	3
STR	56	0	4
SCR	56	0	4	96	192	7
TAP	56	96	2
TAP	56	192	1
TAP	56	288	0
TAP	57	0	0
TAP	57	0	1
TAP	57	96	2
TAP	57	96	7
TAP	57	192	3
TAP	57	192	6
TAP	57	288	4
TAP	57	288	5
TAP	58	0	2
TAP	58	0	3
TAP	58	96	1
TAP	58	96	4
TAP	58	192	0
TAP	58	192	5
TAP	58	288	6
TAP	58	288	7
STR	59	0	6
SI_	59	0	6	96	48	3
TAP	59	0	7
TAP	59	192	0
STR	59	192	1
SI_	59	192	1	96	48	4
TAP	60	0	7
TAP	60	96	0
BRK	60	192	1
BRK	60	192	6
TAP	61	0	0
STR	61	0	1
SI_	61	0	1	96	48	4
STR	61	192	6
SI_	61	192	6	96	48	3
TAP	61	192	7
TAP	62	0	0
TAP	62	96	7
BRK	62	192	1
BRK	62	192	6
STR	63	0	6
SI_	63	0	6	96	48	3
TAP	63	0	7
TAP	63	192	0
STR	63	192	1
SI_	63	192	1	96	48	4
TAP	64	0	7
TAP	64	96	0
BRK	64	192	1
BRK	64	192	6
TAP	65	0	0
STR	65	0	1
SI_	65	0	1	96	48	4
STR	65	192	6
SI_	65	192	6	96	48	3
TAP	65	192	7
TAP	66	0	0
TAP	66	48	7
TAP	66	96	0
TAP	66	144	7
BRK	66	192	0
STR	67	0	6
SI_	67	0	6	96	48	3
STR	67	0	7
SI_	67	0	7	96	48	3
STR	67	192	0
SI_	67	192	0	96	48	4
STR	67	192	1
SI_	67	192	1	96	48	4
TAP	68	0	6
TAP	68	0	7
TAP	68	96	0
TAP	68	96	1
BRK	68	192	1
BRK	68	192	6
STR	69	0	0
SI_	69	0	0	96	48	4
STR	69	0	1
SI_	69	0	1	96	48	4
STR	69	192	6
SI_	69	192	6	96	48	3
STR	69	192	7
SI_	69	192	7	96	48	3
TAP	70	0	0
TAP	70	0	1
TAP	70	96	6
TAP	70	96	7
BRK	70	192	1
BRK	70	192	6
STR	71	0	6
SI_	71	0	6	96	48	3
STR	71	0	7
SI_	71	0	7	96	48	3
STR	71	192	0
SI_	71	192	0	96	48	4
STR	71	192	1
SI_	71	192	1	96	48	4
TAP	72	0	6
TAP	72	0	7
TAP	72	96	0
TAP	72	96	1
BRK	72	192	1
BRK	72	192	6
STR	73	0	0
SI_	73	0	0	96	48	4
STR	73	0	1
SI_	73	0	1	96	48	4
STR	73	192	6
SI_	73	192	6	96	48	3
STR	73	192	7
SI_	73	192	7	96	48	3
TAP	74	0	0
TAP	74	48	7
TAP	74	96	0
TAP	74	144	7
BRK	74	192	0
BRK	75	0	1
BRK	75	0	6

T_REC_TAP	235
T_REC_BRK	26
T_REC_XTP	0
T_REC_HLD	27
T_REC_XHO	0
T_REC_STR	45
T_REC_BST	1
T_REC_XST	0
T_REC_TTP	0
T_REC_THO	0
T_REC_SLD	54
T_REC_ALL	388
T_NUM_TAP	280
T_NUM_BRK	27
T_NUM_HLD	27
T_NUM_SLD	54
T_NUM_ALL	388
T_JUDGE_TAP	307
T_JUDGE_HLD	80
T_JUDGE_SLD	54
T_JUDGE_ALL	441
TTM_EACHPAIRS	99
TTM_SCR_TAP	140000
TTM_SCR_BRK	70200
TTM_SCR_HLD	27000
TTM_SCR_SLD	81000
TTM_SCR_ALL	318200
TTM_SCR_S	306050
TTM_SCR_SS	315500
TTM_RAT_ACV	10085

